Alien Ant Farm – ANThology




No Cover available


Artist: Alien Ant Farm
Year: 2001
Genre: Rock
Notes: Discogs
Add. Notes:
Watch Songs on: YouTube
Cover incl.: Yes
Encoder: FLAC
Bitrate: ~1000 kBit/s (44.1 kHz/16 Bit/s)
Log & Cue incl.: Yes/Yes
Size: 398,9 MB
Password: “slam” (without ” “)


All Downloads/Hosters are compatible

Download 1
KatFile.com
Turbobit.net
Rapidgator.net
FileFactory.com
Download 2
KatFile.com
Turbobit.net
Rapidgator.net
FileFactory.com

Tracklist:

1 Courage 3:30
2 Movies 3:15
3 Flesh And Bone 4:28
4 Whisper 3:25
5 Summer 4:15
6 Sticks And Stones 3:16
7 Attitude 4:54
8 Stranded 3:57
9 Wish 3:21
10 Calico 4:10
11 Death Day 4:33
12 Smooth Criminal 3:29
13.1 Universe 5:53
13.2 Orange Appeal 2:42

EAC-Log, CUE-Sheed & NFO:

Click to open spoiler
Exact Audio Copy V0.99 prebeta 3 from 28. July 2007

Отчёт EAC об извлечении, выполненном 1. марта 2008, 20:12

Alien Ant Farm / ANThology

Дисковод: HL-DT-STDVDRRW GSA-2166D Adapter: 1 ID: 0

Режим чтения : Достоверность
Использование точного потока : Да
Отключение кэша аудио : Да
Использование указателей C2 : Нет

Коррекция смещения при чтении : 102
Способность читать области Lead-in и Lead-out : Нет
Заполнение пропущенных сэмплов тишиной : Да
Удаление блоков с тишиной в начале и конце : Нет
При вычислениях CRC использовались нулевые сэмплы : Нет
Интерфейс : Установленный внешний ASPI-интерфейс

Выходной формат : Пользовательский кодировщик
Выбранный битрейт : 896 kBit/s
Качество : Высокий
Добавление ID3-тэга : Да
Утилита сжатия : C:\Program Files\Exact Audio Copy\FLAC\FLAC.EXE
Дополнительные параметры : -T “artist=%a” -T “title=%t” -T “album=%g” -T “date=%y” -T “tracknumber=%n” -T “genre=%m” %s

TOC извлечённого CD

Трек | Старт | Длительность | Начальный сектор | Конечный сектор
———————————————————————
1 | 0:00.00 | 3:30.22 | 0 | 15771
2 | 3:30.22 | 3:15.53 | 15772 | 30449
3 | 6:46.00 | 4:28.45 | 30450 | 50594
4 | 11:14.45 | 3:25.40 | 50595 | 66009
5 | 14:40.10 | 4:15.20 | 66010 | 85154
6 | 18:55.30 | 3:16.10 | 85155 | 99864
7 | 22:11.40 | 4:54.67 | 99865 | 121981
8 | 27:06.32 | 3:57.30 | 121982 | 139786
9 | 31:03.62 | 3:21.60 | 139787 | 154921
10 | 34:25.47 | 4:10.08 | 154922 | 173679
11 | 38:35.55 | 4:33.52 | 173680 | 194206
12 | 43:09.32 | 3:29.20 | 194207 | 209901
13 | 46:38.52 | 9:07.38 | 209902 | 250964

Характеристики диапазона извлечения и сообщения об ошибках

Выбранный диапазон

Имя файла H:\Alien Ant Farm – ANThology.wav

Пиковый уровень 99.2 %
Качество диапазона 99.9 %
CRC копии 7EC40FF8
Копирование… OK

Ошибок не произошло

Конец отчёта

REM GENRE “Alternative Rock”
REM DATE 2001
REM DISCID AA0D120D
REM COMMENT “ExactAudioCopy v0.99pb3”
PERFORMER “Alien Ant Farm”
TITLE “ANThology”
FILE “Alien Ant Farm – ANThology.flac” WAVE
TRACK 01 AUDIO
TITLE “Courage”
PERFORMER “Alien Ant Farm”
INDEX 01 00:00:00
TRACK 02 AUDIO
TITLE “Movies”
PERFORMER “Alien Ant Farm”
INDEX 01 03:30:22
TRACK 03 AUDIO
TITLE “Flesh And Bone”
PERFORMER “Alien Ant Farm”
INDEX 01 06:46:00
TRACK 04 AUDIO
TITLE “Whisper”
PERFORMER “Alien Ant Farm”
INDEX 01 11:14:45
TRACK 05 AUDIO
TITLE “Summer”
PERFORMER “Alien Ant Farm”
INDEX 01 14:40:10
TRACK 06 AUDIO
TITLE “Sticks And Stones”
PERFORMER “Alien Ant Farm”
INDEX 01 18:55:30
TRACK 07 AUDIO
TITLE “Attitude”
PERFORMER “Alien Ant Farm”
INDEX 01 22:11:40
TRACK 08 AUDIO
TITLE “Stranded”
PERFORMER “Alien Ant Farm”
INDEX 01 27:06:32
TRACK 09 AUDIO
TITLE “Wish”
PERFORMER “Alien Ant Farm”
INDEX 01 31:03:62
TRACK 10 AUDIO
TITLE “Calico”
PERFORMER “Alien Ant Farm”
INDEX 01 34:25:47
TRACK 11 AUDIO
TITLE “Death Day”
PERFORMER “Alien Ant Farm”
INDEX 01 38:35:55
TRACK 12 AUDIO
TITLE “Smooth Criminal”
PERFORMER “Alien Ant Farm”
INDEX 01 43:09:32
TRACK 13 AUDIO
TITLE “Universe”
PERFORMER “Alien Ant Farm”
INDEX 01 46:38:52


0

Publication author

offline 5 days

Chaos

3
Comments: 4Publics: 3565Registration: 02-02-2019
Spread the Download

Leave a Reply

Your email address will not be published. Required fields are marked *

Enter the text from the image below
 

This site uses Akismet to reduce spam. Learn how your comment data is processed.