Alien Ant Farm – 3rd Draft




No Cover available

Artist: Alien Ant Farm
Year: 2005
Genre: Rock
Notes: Discogs
Add. Notes:
Watch Songs on: YouTube
Cover incl.: Yes
Encoder: FLAC
Bitrate: ~1000 kBit/s (44.1 kHz/16 Bit/s)
Log & Cue incl.: Yes/Yes
Size: 375,3 MB
Password: “slam” (without ” “)


All Downloads/Hosters are compatible

Download 1
KatFile.com
Turbobit.net
Rapidgator.net
FileFactory.com
Download 2
KatFile.com
Turbobit.net
Rapidgator.net
FileFactory.com

Tracklist:

1 Bad Morning 3:42
2 What I Feel Is Mine 2:58
3 It Could Happen 3:53
4 Around The Block 3:16
5 San Sabastian 3:05
6 Lord Knows 3:06
7 Getting Closer 3:48
8 Crickets 4:36
9 Supreme Lifestyle 3:56
10 Consti2tion 3:38
11 State Of Emergency 3:29
12 Sleepwalker 3:06
13.1 She's Only Evil 8:26
13.2 Tragedy (Hidden Track) 
13.3 Say Something (Hidden Track) 

EAC-Log, CUE-Sheed & NFO:

Click to open spoiler
Exact Audio Copy V0.99 prebeta 5 from 4. May 2009

EAC extraction logfile from 23. January 2010, 19:32

Alien Ant Farm / 3rd Draft

Used drive : LITE-ON DVDRW SHM-165H6S Adapter: 0 ID: 0

Read mode : Secure
Utilize accurate stream : Yes
Defeat audio cache : Yes
Make use of C2 pointers : No

Read offset correction : 6
Overread into Lead-In and Lead-Out : No
Fill up missing offset samples with silence : Yes
Delete leading and trailing silent blocks : No
Null samples used in CRC calculations : No
Used interface : Native Win32 interface for Win NT & 2000
Gap handling : Appended to previous track

Used output format : User Defined Encoder
Selected bitrate : 768 kBit/s
Quality : High
Add ID3 tag : No
Command line compressor : C:\Program Files (x86)\FLAC\flac.exe
Additional command line options : -8 -T “artist=%a” -T “title=%t” -T “album=%g” -T “date=%y” -T “tracknumber=%n” -T “genre=%m” %s

TOC of the extracted CD

Track | Start | Length | Start sector | End sector
———————————————————
1 | 0:00.00 | 3:42.50 | 0 | 16699
2 | 3:42.50 | 2:58.49 | 16700 | 30098
3 | 6:41.24 | 3:53.52 | 30099 | 47625
4 | 10:35.01 | 3:16.25 | 47626 | 62350
5 | 13:51.26 | 3:05.15 | 62351 | 76240
6 | 16:56.41 | 3:06.67 | 76241 | 90257
7 | 20:03.33 | 3:48.52 | 90258 | 107409
8 | 23:52.10 | 4:36.23 | 107410 | 128132
9 | 28:28.33 | 3:56.20 | 128133 | 145852
10 | 32:24.53 | 3:38.20 | 145853 | 162222
11 | 36:02.73 | 3:29.02 | 162223 | 177899
12 | 39:32.00 | 3:06.66 | 177900 | 191915
13 | 42:38.66 | 8:26.13 | 191916 | 229878

Track 1

Filename C:\EAC Extraction\Alien Ant Farm\Alien Ant Farm – 3rd Draft (2005) [FLAC]\01 – Bad Morning.wav

Pre-gap length 0:00:02.00

Peak level 100.0 %
Track quality 100.0 %
Test CRC 82E05CCE
Copy CRC 82E05CCE
Copy OK

Track 2

Filename C:\EAC Extraction\Alien Ant Farm\Alien Ant Farm – 3rd Draft (2005) [FLAC]\02 – What I Feel Is Mine.wav

Peak level 96.6 %
Track quality 99.9 %
Test CRC F13A39D3
Copy CRC F13A39D3
Copy OK

Track 3

Filename C:\EAC Extraction\Alien Ant Farm\Alien Ant Farm – 3rd Draft (2005) [FLAC]\03 – It Could Happen.wav

Peak level 96.6 %
Track quality 100.0 %
Test CRC 9F4BBEC9
Copy CRC 9F4BBEC9
Copy OK

Track 4

Filename C:\EAC Extraction\Alien Ant Farm\Alien Ant Farm – 3rd Draft (2005) [FLAC]\04 – Around The Block.wav

Pre-gap length 0:00:01.11

Peak level 96.6 %
Track quality 100.0 %
Test CRC 2B8CC9B7
Copy CRC 2B8CC9B7
Copy OK

Track 5

Filename C:\EAC Extraction\Alien Ant Farm\Alien Ant Farm – 3rd Draft (2005) [FLAC]\05 – San Sebastian.wav

Peak level 96.6 %
Track quality 100.0 %
Test CRC 4399E0D3
Copy CRC 4399E0D3
Copy OK

Track 6

Filename C:\EAC Extraction\Alien Ant Farm\Alien Ant Farm – 3rd Draft (2005) [FLAC]\06 – Lord Knows.wav

Peak level 100.0 %
Track quality 100.0 %
Test CRC 887B6770
Copy CRC 887B6770
Copy OK

Track 7

Filename C:\EAC Extraction\Alien Ant Farm\Alien Ant Farm – 3rd Draft (2005) [FLAC]\07 – Getting Closer.wav

Peak level 96.6 %
Track quality 100.0 %
Test CRC 6C250EA8
Copy CRC 6C250EA8
Copy OK

Track 8

Filename C:\EAC Extraction\Alien Ant Farm\Alien Ant Farm – 3rd Draft (2005) [FLAC]\08 – Crickets.wav

Peak level 100.0 %
Track quality 100.0 %
Test CRC 183341BB
Copy CRC 183341BB
Copy OK

Track 9

Filename C:\EAC Extraction\Alien Ant Farm\Alien Ant Farm – 3rd Draft (2005) [FLAC]\09 – Supreme Lifestyle.wav

Peak level 96.6 %
Track quality 100.0 %
Test CRC 5F5F91B4
Copy CRC 5F5F91B4
Copy OK

Track 10

Filename C:\EAC Extraction\Alien Ant Farm\Alien Ant Farm – 3rd Draft (2005) [FLAC]\10 – Contsti2tion.wav

Peak level 96.6 %
Track quality 100.0 %
Test CRC F526E7EB
Copy CRC F526E7EB
Copy OK

Track 11

Filename C:\EAC Extraction\Alien Ant Farm\Alien Ant Farm – 3rd Draft (2005) [FLAC]\11 – State Of Emergency.wav

Peak level 96.6 %
Track quality 100.0 %
Test CRC C0D5A656
Copy CRC C0D5A656
Copy OK

Track 12

Filename C:\EAC Extraction\Alien Ant Farm\Alien Ant Farm – 3rd Draft (2005) [FLAC]\12 – Sleepwalker.wav

Pre-gap length 0:00:01.28

Peak level 96.6 %
Track quality 100.0 %
Test CRC 9685DD79
Copy CRC 9685DD79
Copy OK

Track 13

Filename C:\EAC Extraction\Alien Ant Farm\Alien Ant Farm – 3rd Draft (2005) [FLAC]\13 – She’s Only Evil.wav

Pre-gap length 0:00:02.28

Peak level 96.9 %
Track quality 100.0 %
Test CRC AB758DD9
Copy CRC AB758DD9
Copy OK

No errors occurred

End of status report

REM GENRE “Alt. Rock”
REM DATE 2005
REM DISCID 940BF90D
REM COMMENT “ExactAudioCopy v0.99pb5”
PERFORMER “Alien Ant Farm”
TITLE “3rd Draft”
FILE “01 – Bad Morning.wav” WAVE
TRACK 01 AUDIO
TITLE “Bad Morning”
PERFORMER “Alien Ant Farm”
INDEX 01 00:00:00
FILE “02 – What I Feel Is Mine.wav” WAVE
TRACK 02 AUDIO
TITLE “What I Feel Is Mine”
PERFORMER “Alien Ant Farm”
INDEX 01 00:00:00
FILE “03 – It Could Happen.wav” WAVE
TRACK 03 AUDIO
TITLE “It Could Happen”
PERFORMER “Alien Ant Farm”
INDEX 01 00:00:00
TRACK 04 AUDIO
TITLE “Around The Block”
PERFORMER “Alien Ant Farm”
INDEX 00 03:52:41
FILE “04 – Around The Block.wav” WAVE
INDEX 01 00:00:00
FILE “05 – San Sebastian.wav” WAVE
TRACK 05 AUDIO
TITLE “San Sebastian”
PERFORMER “Alien Ant Farm”
INDEX 01 00:00:00
FILE “06 – Lord Knows.wav” WAVE
TRACK 06 AUDIO
TITLE “Lord Knows”
PERFORMER “Alien Ant Farm”
INDEX 01 00:00:00
FILE “07 – Getting Closer.wav” WAVE
TRACK 07 AUDIO
TITLE “Getting Closer”
PERFORMER “Alien Ant Farm”
INDEX 01 00:00:00
FILE “08 – Crickets.wav” WAVE
TRACK 08 AUDIO
TITLE “Crickets”
PERFORMER “Alien Ant Farm”
INDEX 01 00:00:00
FILE “09 – Supreme Lifestyle.wav” WAVE
TRACK 09 AUDIO
TITLE “Supreme Lifestyle”
PERFORMER “Alien Ant Farm”
INDEX 01 00:00:00
FILE “10 – Contsti2tion.wav” WAVE
TRACK 10 AUDIO
TITLE “Contsti2tion”
PERFORMER “Alien Ant Farm”
INDEX 01 00:00:00
FILE “11 – State Of Emergency.wav” WAVE
TRACK 11 AUDIO
TITLE “State Of Emergency”
PERFORMER “Alien Ant Farm”
INDEX 01 00:00:00
TRACK 12 AUDIO
TITLE “Sleepwalker”
PERFORMER “Alien Ant Farm”
INDEX 00 03:27:49
FILE “12 – Sleepwalker.wav” WAVE
INDEX 01 00:00:00
TRACK 13 AUDIO
TITLE “She’s Only Evil”
PERFORMER “Alien Ant Farm”
INDEX 00 03:04:38
FILE “13 – She’s Only Evil.wav” WAVE
INDEX 01 00:00:00


Leave a Reply

Your email address will not be published. Required fields are marked *

This site uses Akismet to reduce spam. Learn how your comment data is processed.