Alice Cooper – Welcome To My Nightmare (Japanese Edition)




Artist: Alice Cooper
Year: 2012
Genre: Rock
Notes: Discogs
Add. Notes: Japanese Edition
Cover incl.: Yes
Encoder: FLAC
Bitrate: ~900 kBit/s (44.1 kHz/16 Bit/s)
Log & Cue incl.: Yes
Size: 355,92 MB
Password: “slam” (without ” “)


All Downloads/Hosters are compatible

Download 1
Turbobit.net
Rapidgator.net
KatFile.com
UploadRar.com
Download 2
Turbobit.net
Rapidgator.net
KatFile.com
UploadRar.com
Download 3
Turbobit.net
Rapidgator.net
KatFile.com
UploadRar.com

Tracklist:

1. Welcome To My Nightmare
2. Devil's Food
3. The Black Widow
4. Some Folks
5. Only Women Bleed
6. Department Of Youth
7. Cold Ethyl
8. Years Ago
9. Steven
10. The Awakening
11. Escape

EAC-Log, CUE-Sheed & NFO:

Click to open spoiler
Exact Audio Copy V1.0 beta 3 from 29. August 2011

EAC extraction logfile from 5. February 2012, 20:29

Alice Cooper / Welcome To My Nightmare

Used drive : HL-DT-STDVDRAM GSA-H60N Adapter: 2 ID: 0

Read mode : Secure
Utilize accurate stream : Yes
Defeat audio cache : Yes
Make use of C2 pointers : No

Read offset correction : 667
Overread into Lead-In and Lead-Out : No
Fill up missing offset samples with silence : Yes
Delete leading and trailing silent blocks : No
Null samples used in CRC calculations : Yes
Used interface : Native Win32 interface for Win NT & 2000

Used output format : Internal WAV Routines
Sample format : 44.100 Hz; 16 Bit; Stereo

TOC of the extracted CD

Track | Start | Length | Start sector | End sector
———————————————————
1 | 0:00.00 | 5:20.74 | 0 | 24073
2 | 5:20.74 | 3:35.74 | 24074 | 40272
3 | 8:56.73 | 3:37.39 | 40273 | 56586
4 | 12:34.37 | 4:17.58 | 56587 | 75919
5 | 16:52.20 | 5:49.51 | 75920 | 102145
6 | 22:41.71 | 3:20.39 | 102146 | 117184
7 | 26:02.35 | 2:57.13 | 117185 | 130472
8 | 28:59.48 | 2:51.69 | 130473 | 143366
9 | 31:51.42 | 5:46.50 | 143367 | 169366
10 | 37:38.17 | 2:30.09 | 169367 | 180625
11 | 40:08.26 | 3:16.54 | 180626 | 195379

Range status and errors

Selected range

Filename C:\Documents and Settings\Admin\Рабочий стол\Lossless Galaxy Rip by ALLexxess\Alice Cooper 12 Mini LP SHM-CD Warner Music Japan 2011-2012\1975 Welcome To My Nightmare\Alice Cooper – Welcome To My Nightmare.wav

Peak level 100.0 %
Extraction speed 5.7 X
Range quality 100.0 %
Test CRC 081E22AC
Copy CRC 081E22AC
Copy OK

No errors occurred

AccurateRip summary

Track 1 not present in database
Track 2 not present in database
Track 3 not present in database
Track 4 not present in database
Track 5 not present in database
Track 6 not present in database
Track 7 not present in database
Track 8 not present in database
Track 9 not present in database
Track 10 not present in database
Track 11 not present in database

None of the tracks are present in the AccurateRip database

End of status report

==== Log checksum A28E2F2ECC5A20BB0CAF2B5CE9AD366436FBF7D612FFDD99F75C4FADEEA93CDC ====

REM GENRE “Rock / Hard Rock / Glam Rock”
REM DATE 1975
REM DISCID 7A0A2D0B
REM COMMENT “ExactAudioCopy v1.0b3”
PERFORMER “Alice Cooper”
TITLE “Welcome To My Nightmare”
FILE “Alice Cooper – Welcome To My Nightmare.flac” WAVE
TRACK 01 AUDIO
TITLE “Welcome To My Nightmare”
PERFORMER “Alice Cooper”
INDEX 01 00:00:00
TRACK 02 AUDIO
TITLE “Devil’s Food”
PERFORMER “Alice Cooper”
INDEX 00 05:18:23
INDEX 01 05:20:74
TRACK 03 AUDIO
TITLE “The Black Widow”
PERFORMER “Alice Cooper”
INDEX 01 08:56:73
TRACK 04 AUDIO
TITLE “Some Folks”
PERFORMER “Alice Cooper”
INDEX 01 12:34:37
TRACK 05 AUDIO
TITLE “Only Women Bleed”
PERFORMER “Alice Cooper”
INDEX 00 16:51:14
INDEX 01 16:52:20
TRACK 06 AUDIO
TITLE “Department Of Youth”
PERFORMER “Alice Cooper”
INDEX 00 22:40:04
INDEX 01 22:41:71
TRACK 07 AUDIO
TITLE “Cold Ethyl”
PERFORMER “Alice Cooper”
INDEX 00 26:02:16
INDEX 01 26:02:35
TRACK 08 AUDIO
TITLE “Years Ago”
PERFORMER “Alice Cooper”
INDEX 00 28:58:26
INDEX 01 28:59:48
TRACK 09 AUDIO
TITLE “Steven”
PERFORMER “Alice Cooper”
INDEX 01 31:51:42
TRACK 10 AUDIO
TITLE “The Awakening”
PERFORMER “Alice Cooper”
INDEX 01 37:38:17
TRACK 11 AUDIO
TITLE “Escape”
PERFORMER “Alice Cooper”
INDEX 00 40:05:27
INDEX 01 40:08:26


Leave a Reply

Your email address will not be published. Required fields are marked *

Enter the text from the image below
 

This site uses Akismet to reduce spam. Learn how your comment data is processed.