Alice Cooper – School’s Out (Limited Remastered Japanese Edition)




Artist: Alice Cooper
Year: 1972/2011
Genre: Rock
Notes: Discogs
Add. Notes: Limited Remastered Japanese Edition
Cover incl.: Yes
Encoder: FLAC
Bitrate: ~1000 kBit/s (44.1 kHz/16 Bit/s)
Log & Cue incl.: Yes
Size: 326,06 MB
Password: “slam” (without ” “)


All Downloads/Hosters are compatible

Download 1
Turbobit.net
Rapidgator.net
UploadEver.com
KatFile.com
UsersDrive.com
Download 2
Turbobit.net
Rapidgator.net
UploadEver.com
KatFile.com
UsersDrive.com
Download 3
Turbobit.net
Rapidgator.net
UploadEver.com
KatFile.com
UsersDrive.com

Tracklist:

1. School's Out 
2. Luney Tune 
3. Gutter Cat Vs. The Jets 
4. Street Fight 
5. Blue Turk 
6. My Stars 
7. Public Animal #9 
8. Alma Mater 
9. Grande Finale

EAC-Log, CUE-Sheed & NFO:

Click to open spoiler
Exact Audio Copy V1.0 beta 3 from 29. August 2011

EAC extraction logfile from 7. February 2012, 20:04

Alice Cooper / School’s Out

Used drive : HL-DT-STDVDRAM GSA-H60N Adapter: 2 ID: 0

Read mode : Secure
Utilize accurate stream : Yes
Defeat audio cache : Yes
Make use of C2 pointers : No

Read offset correction : 667
Overread into Lead-In and Lead-Out : No
Fill up missing offset samples with silence : Yes
Delete leading and trailing silent blocks : No
Null samples used in CRC calculations : Yes
Used interface : Native Win32 interface for Win NT & 2000

Used output format : Internal WAV Routines
Sample format : 44.100 Hz; 16 Bit; Stereo

TOC of the extracted CD

Track | Start | Length | Start sector | End sector
———————————————————
1 | 0:00.00 | 3:30.71 | 0 | 15820
2 | 3:30.71 | 3:41.28 | 15821 | 32423
3 | 7:12.24 | 4:39.28 | 32424 | 53376
4 | 11:51.52 | 0:55.31 | 53377 | 57532
5 | 12:47.08 | 5:31.60 | 57533 | 82417
6 | 18:18.68 | 5:48.25 | 82418 | 108542
7 | 24:07.18 | 3:52.72 | 108543 | 126014
8 | 28:00.15 | 4:25.65 | 126015 | 145954
9 | 32:26.05 | 4:24.17 | 145955 | 165771

Range status and errors

Selected range

Filename C:\Documents and Settings\Admin\Рабочий стол\Lossless Galaxy Rip by ALLexxess\Alice Cooper 12 Mini LP SHM-CD Warner Music Japan 2011-2012\1972 School’s Out\Alice Cooper – School’s Out.wav

Peak level 100.0 %
Extraction speed 5.5 X
Range quality 100.0 %
Test CRC 31C77658
Copy CRC 31C77658
Copy OK

No errors occurred

AccurateRip summary

Track 1 not present in database
Track 2 not present in database
Track 3 not present in database
Track 4 not present in database
Track 5 not present in database
Track 6 not present in database
Track 7 not present in database
Track 8 not present in database
Track 9 not present in database

None of the tracks are present in the AccurateRip database

End of status report

==== Log checksum ED464782879245597B59DE1A3D0B46DFA91EC967D661DD55FB6BBAAD4F40C294 ====

REM GENRE “Rock / Hard Rock / Glam Rock”
REM DATE 1972
REM DISCID 6E08A209
REM COMMENT “ExactAudioCopy v1.0b3”
PERFORMER “Alice Cooper”
TITLE “School’s Out”
FILE “Alice Cooper – School’s Out.flac” WAVE
TRACK 01 AUDIO
TITLE “School’s Out”
PERFORMER “Alice Cooper”
INDEX 01 00:00:00
TRACK 02 AUDIO
TITLE “Luney Tune”
PERFORMER “Alice Cooper”
INDEX 00 03:28:40
INDEX 01 03:30:71
TRACK 03 AUDIO
TITLE “Gutter Cat Vs. The Jets”
PERFORMER “Alice Cooper”
INDEX 00 07:09:58
INDEX 01 07:12:24
TRACK 04 AUDIO
TITLE “Street Fight”
PERFORMER “Alice Cooper”
INDEX 01 11:51:52
TRACK 05 AUDIO
TITLE “Blue Turk”
PERFORMER “Alice Cooper”
INDEX 00 12:45:10
INDEX 01 12:47:08
TRACK 06 AUDIO
TITLE “My Stars”
PERFORMER “Alice Cooper”
INDEX 00 18:17:71
INDEX 01 18:18:68
TRACK 07 AUDIO
TITLE “Public Animal #9”
PERFORMER “Alice Cooper”
INDEX 00 24:04:58
INDEX 01 24:07:18
TRACK 08 AUDIO
TITLE “Alma Mater”
PERFORMER “Alice Cooper”
INDEX 00 27:57:42
INDEX 01 28:00:15
TRACK 09 AUDIO
TITLE “Grande Finale”
PERFORMER “Alice Cooper”
INDEX 01 32:26:05

Leave a Reply

Your email address will not be published. Required fields are marked *

This site uses Akismet to reduce spam. Learn how your comment data is processed.