Alice Cooper – Pretties For You (Japanese Edition)




Artist: Alice Cooper
Year: 1969/2011
Genre: Rock
Notes: Discogs
Add. Notes: Japanese Edition
Cover incl.: Yes
Encoder: FLAC
Bitrate: ~900 kBit/s (44.1 kHz/16 Bit/s)
Log & Cue incl.: Yes
Size: 350,53 MB
Password: “slam” (without ” “)


All Downloads/Hosters are compatible

Download 1
Turbobit.net
Rapidgator.net
UploadEver.com
KatFile.com
UsersDrive.com
Download 2
Turbobit.net
Rapidgator.net
UploadEver.com
KatFile.com
UsersDrive.com
Download 3
Turbobit.net
Rapidgator.net
UploadEver.com
KatFile.com
UsersDrive.com

Tracklist:

1. Titanic Overture
2. 10 Minutes Before The Worm
3. Sing Low, Sweet Cheerio
4. Today Mueller
5. Living
6. Fields Of Regret
7. No Longer Umpire
8. Levity Ball (Live At The Cheetah)
9. B.B. On Mars
10. Reflected
11. Apple Bush
12. Earwigs To Eternity
13. Changing Arranging

EAC-Log, CUE-Sheed & NFO:

Click to open spoiler
Exact Audio Copy V1.0 beta 3 from 29. August 2011

EAC extraction logfile from 8. February 2012, 20:25

Alice Cooper / Pretties For You

Used drive : HL-DT-STDVDRAM GSA-H60N Adapter: 2 ID: 0

Read mode : Secure
Utilize accurate stream : Yes
Defeat audio cache : Yes
Make use of C2 pointers : No

Read offset correction : 667
Overread into Lead-In and Lead-Out : No
Fill up missing offset samples with silence : Yes
Delete leading and trailing silent blocks : No
Null samples used in CRC calculations : Yes
Used interface : Native Win32 interface for Win NT & 2000

Used output format : Internal WAV Routines
Sample format : 44.100 Hz; 16 Bit; Stereo

TOC of the extracted CD

Track | Start | Length | Start sector | End sector
———————————————————
1 | 0:00.00 | 1:12.35 | 0 | 5434
2 | 1:12.35 | 1:39.39 | 5435 | 12898
3 | 2:51.74 | 5:42.42 | 12899 | 38590
4 | 8:34.41 | 1:48.33 | 38591 | 46723
5 | 10:22.74 | 3:12.01 | 46724 | 61124
6 | 13:35.00 | 5:45.21 | 61125 | 87020
7 | 19:20.21 | 2:02.17 | 87021 | 96187
8 | 21:22.38 | 4:39.48 | 96188 | 117160
9 | 26:02.11 | 1:17.33 | 117161 | 122968
10 | 27:19.44 | 3:17.37 | 122969 | 137780
11 | 30:37.06 | 3:08.48 | 137781 | 151928
12 | 33:45.54 | 1:19.53 | 151929 | 157906
13 | 35:05.32 | 3:03.18 | 157907 | 171649

Range status and errors

Selected range

Filename C:\Documents and Settings\Admin\Рабочий стол\Lossless Galaxy Rip by ALLexxess\Alice Cooper 12 Mini LP SHM-CD Warner Music Japan 2011-2012\1969 Pretties For You\Alice Cooper – Pretties For You.wav

Peak level 100.0 %
Extraction speed 4.2 X
Range quality 100.0 %
Test CRC F328ABFE
Copy CRC F328ABFE
Copy OK

No errors occurred

AccurateRip summary

Track 1 not present in database
Track 2 not present in database
Track 3 not present in database
Track 4 not present in database
Track 5 not present in database
Track 6 not present in database
Track 7 not present in database
Track 8 not present in database
Track 9 not present in database
Track 10 not present in database
Track 11 not present in database
Track 12 not present in database
Track 13 not present in database

None of the tracks are present in the AccurateRip database

End of status report

==== Log checksum EBD2C6DD767CDF787C9477F7F95ED6BDA4102A06BA41CF143CA8FAB976B4D81C ====

REM GENRE “Rock / Hard Rock / Glam Rock”
REM DATE 1969
REM DISCID 9F08F00D
REM COMMENT “ExactAudioCopy v1.0b3”
PERFORMER “Alice Cooper”
TITLE “Pretties For You”
FILE “Alice Cooper – Pretties For You.flac” WAVE
TRACK 01 AUDIO
TITLE “Titanic Overture”
PERFORMER “Alice Cooper”
INDEX 01 00:00:00
TRACK 02 AUDIO
TITLE “10 Minutes Before The Worm”
PERFORMER “Alice Cooper”
INDEX 01 01:12:35
TRACK 03 AUDIO
TITLE “Sing Low, Sweet Cheerio”
PERFORMER “Alice Cooper”
INDEX 00 02:49:49
INDEX 01 02:51:74
TRACK 04 AUDIO
TITLE “Today Mueller”
PERFORMER “Alice Cooper”
INDEX 00 08:32:12
INDEX 01 08:34:41
TRACK 05 AUDIO
TITLE “Living”
PERFORMER “Alice Cooper”
INDEX 00 10:22:00
INDEX 01 10:22:74
TRACK 06 AUDIO
TITLE “Fields Of Regret”
PERFORMER “Alice Cooper”
INDEX 00 13:32:12
INDEX 01 13:35:00
TRACK 07 AUDIO
TITLE “No Longer Umpire”
PERFORMER “Alice Cooper”
INDEX 00 19:19:05
INDEX 01 19:20:21
TRACK 08 AUDIO
TITLE “Levity Ball (Live At The Cheetah)”
PERFORMER “Alice Cooper”
INDEX 00 21:20:01
INDEX 01 21:22:38
TRACK 09 AUDIO
TITLE “B.B. On Mars”
PERFORMER “Alice Cooper”
INDEX 00 25:59:37
INDEX 01 26:02:11
TRACK 10 AUDIO
TITLE “Reflected”
PERFORMER “Alice Cooper”
INDEX 00 27:15:24
INDEX 01 27:19:44
TRACK 11 AUDIO
TITLE “Apple Bush”
PERFORMER “Alice Cooper”
INDEX 00 30:35:06
INDEX 01 30:37:06
TRACK 12 AUDIO
TITLE “Earwigs To Eternity”
PERFORMER “Alice Cooper”
INDEX 00 33:43:22
INDEX 01 33:45:54
TRACK 13 AUDIO
TITLE “Changing Arranging”
PERFORMER “Alice Cooper”
INDEX 00 35:04:07
INDEX 01 35:05:32

Leave a Reply

Your email address will not be published. Required fields are marked *

This site uses Akismet to reduce spam. Learn how your comment data is processed.