Alice Cooper – Muscle Of Love




Artist: Alice Cooper
Year: 1973/2012
Genre: Rock
Notes: Discogs
Add. Notes: Japanese Edition
Cover incl.: Yes
Encoder: FLAC
Bitrate: ~900 kBit/s (44.1 kHz/16 Bit/s)
Log & Cue incl.: Yes
Size: 343,87 MB
Password: “slam” (without ” “)


All Downloads/Hosters are compatible

Download 1
Turbobit.net
Rapidgator.net
KatFile.com
UploadRar.com
Download 2
Turbobit.net
Rapidgator.net
KatFile.com
UploadRar.com
Download 3
Turbobit.net
Rapidgator.net
KatFile.com
UploadRar.com

Tracklist:

1. Muscle Of Love 
2. Woman Machine
3. Hard Hearted Alice
4. Man With The Golden Gun
5. Big Apple Dreamin' (Hippo)
6. Never Been Sold Before
7. Working Up A Sweat 
8. Crazy Little Child 
9. Teenage Lament

EAC-Log, CUE-Sheed & NFO:

Click to open spoiler
Exact Audio Copy V1.0 beta 3 from 29. August 2011

EAC extraction logfile from 5. February 2012, 21:00

Alice Cooper / Muscle Of Love

Used drive : HL-DT-STDVDRAM GSA-H60N Adapter: 2 ID: 0

Read mode : Secure
Utilize accurate stream : Yes
Defeat audio cache : Yes
Make use of C2 pointers : No

Read offset correction : 667
Overread into Lead-In and Lead-Out : No
Fill up missing offset samples with silence : Yes
Delete leading and trailing silent blocks : No
Null samples used in CRC calculations : Yes
Used interface : Native Win32 interface for Win NT & 2000

Used output format : Internal WAV Routines
Sample format : 44.100 Hz; 16 Bit; Stereo

TOC of the extracted CD

Track | Start | Length | Start sector | End sector
———————————————————
1 | 0:00.00 | 5:10.13 | 0 | 23262
2 | 5:10.13 | 4:27.47 | 23263 | 43334
3 | 9:37.60 | 4:52.50 | 43335 | 65284
4 | 14:30.35 | 5:03.67 | 65285 | 88076
5 | 19:34.27 | 3:32.30 | 88077 | 104006
6 | 23:06.57 | 3:44.55 | 104007 | 120861
7 | 26:51.37 | 4:12.15 | 120862 | 139776
8 | 31:03.52 | 3:52.53 | 139777 | 157229
9 | 34:56.30 | 4:32.54 | 157230 | 177683

Range status and errors

Selected range

Filename C:\Documents and Settings\Admin\Рабочий стол\Lossless Galaxy Rip by ALLexxess\Alice Cooper 12 Mini LP SHM-CD Warner Music Japan 2011-2012\1973 Muscle Of Love\Alice Cooper – Muscle Of Love.wav

Peak level 100.0 %
Extraction speed 5.6 X
Range quality 100.0 %
Test CRC 882BB662
Copy CRC 882BB662
Copy OK

No errors occurred

AccurateRip summary

Track 1 not present in database
Track 2 not present in database
Track 3 not present in database
Track 4 not present in database
Track 5 not present in database
Track 6 not present in database
Track 7 not present in database
Track 8 not present in database
Track 9 not present in database

None of the tracks are present in the AccurateRip database

End of status report

==== Log checksum DEAC628A4F79AC0994A602B932AA9CE9D07355F6EC4300003AA4EA6FCE932A4F ====

REM GENRE “Rock / Hard Rock / Glam Rock”
REM DATE 1973
REM DISCID 83094109
REM COMMENT “ExactAudioCopy v1.0b3”
PERFORMER “Alice Cooper”
TITLE “Muscle Of Love”
FILE “Alice Cooper – Muscle Of Love.flac” WAVE
TRACK 01 AUDIO
TITLE “Big Apple Dreamin’ (Hippo)”
PERFORMER “Alice Cooper”
INDEX 01 00:00:00
TRACK 02 AUDIO
TITLE “Never Been Sold Before”
PERFORMER “Alice Cooper”
INDEX 01 05:10:13
TRACK 03 AUDIO
TITLE “Hard Hearted Alice”
PERFORMER “Alice Cooper”
INDEX 01 09:37:60
TRACK 04 AUDIO
TITLE “Crazy Little Child”
PERFORMER “Alice Cooper”
INDEX 01 14:30:35
TRACK 05 AUDIO
TITLE “Working Up A Sweat”
PERFORMER “Alice Cooper”
INDEX 00 19:33:40
INDEX 01 19:34:27
TRACK 06 AUDIO
TITLE “Muscle Of Love”
PERFORMER “Alice Cooper”
INDEX 01 23:06:57
TRACK 07 AUDIO
TITLE “Man With The Golden Gun”
PERFORMER “Alice Cooper”
INDEX 00 26:50:38
INDEX 01 26:51:37
TRACK 08 AUDIO
TITLE “Teenage Lament ’74”
PERFORMER “Alice Cooper”
INDEX 01 31:03:52
TRACK 09 AUDIO
TITLE “Woman Machine”
PERFORMER “Alice Cooper”
INDEX 00 34:56:28
INDEX 01 34:56:30


Leave a Reply

Your email address will not be published. Required fields are marked *

Enter the text from the image below
 

This site uses Akismet to reduce spam. Learn how your comment data is processed.