Alice Cooper – Love It To Death (Japanese Edition)




Artist: Alice Cooper
Year: 1971/2011
Genre: Rock
Notes: Discogs
Add. Notes: Japanese Edition
Cover incl.: Yes
Encoder: FLAC
Bitrate: ~1000 kBit/s (44.1 kHz/16 Bit/s)
Log & Cue incl.: Yes
Size: 352,26 MB
Password: “slam” (without ” “)


All Downloads/Hosters are compatible

Download 1
Turbobit.net
Rapidgator.net
UploadEver.com
KatFile.com
UsersDrive.com
Download 2
Turbobit.net
Rapidgator.net
UploadEver.com
KatFile.com
UsersDrive.com
Download 3
Turbobit.net
Rapidgator.net
UploadEver.com
KatFile.com
UsersDrive.com

Tracklist:

1. Caught In A Dream 
2. I'm Eighteen 
3. Long Way To Go 
4. Black Juju 
5. Is It My Body 
6. Hallowed Be My Name 
7. Second Coming 
8. Ballad Of Dwight Fry 
9. Sun Arise

EAC-Log, CUE-Sheed & NFO:

Click to open spoiler
Exact Audio Copy V1.0 beta 3 from 29. August 2011

EAC extraction logfile from 7. February 2012, 21:37

Alice Cooper / Love It To Death

Used drive : HL-DT-STDVDRAM GSA-H60N Adapter: 2 ID: 0

Read mode : Secure
Utilize accurate stream : Yes
Defeat audio cache : Yes
Make use of C2 pointers : No

Read offset correction : 667
Overread into Lead-In and Lead-Out : No
Fill up missing offset samples with silence : Yes
Delete leading and trailing silent blocks : No
Null samples used in CRC calculations : Yes
Used interface : Native Win32 interface for Win NT & 2000

Used output format : Internal WAV Routines
Sample format : 44.100 Hz; 16 Bit; Stereo

TOC of the extracted CD

Track | Start | Length | Start sector | End sector
———————————————————
1 | 0:00.00 | 3:09.05 | 0 | 14179
2 | 3:09.05 | 3:00.33 | 14180 | 27712
3 | 6:09.38 | 3:02.49 | 27713 | 41411
4 | 9:12.12 | 9:06.56 | 41412 | 82417
5 | 18:18.68 | 2:39.15 | 82418 | 94357
6 | 20:58.08 | 2:31.42 | 94358 | 105724
7 | 23:29.50 | 3:04.04 | 105725 | 119528
8 | 26:33.54 | 6:31.23 | 119529 | 148876
9 | 33:05.02 | 3:51.20 | 148877 | 166221

Range status and errors

Selected range

Filename C:\Documents and Settings\Admin\Рабочий стол\Lossless Galaxy Rip by ALLexxess\Alice Cooper 12 Mini LP SHM-CD Warner Music Japan 2011-2012\1971 Love It To Death\Alice Cooper – Love It To Death.wav

Peak level 100.0 %
Extraction speed 5.5 X
Range quality 100.0 %
Test CRC 12E26494
Copy CRC 12E26494
Copy OK

No errors occurred

AccurateRip summary

Track 1 not present in database
Track 2 not present in database
Track 3 not present in database
Track 4 not present in database
Track 5 not present in database
Track 6 not present in database
Track 7 not present in database
Track 8 not present in database
Track 9 not present in database

None of the tracks are present in the AccurateRip database

End of status report

==== Log checksum 076F6B032A655E0DD26ED3BF099910863135C29DAD07E4B5E50DDF412BC29A93 ====

REM GENRE “Rock / Hard Rock / Glam Rock”
REM DATE 1971
REM DISCID 6508A809
REM COMMENT “ExactAudioCopy v1.0b3”
PERFORMER “Alice Cooper”
TITLE “Love It To Death”
FILE “Alice Cooper – Love It To Death.flac” WAVE
TRACK 01 AUDIO
TITLE “Caught In A Dream”
PERFORMER “Alice Cooper”
INDEX 01 00:00:00
TRACK 02 AUDIO
TITLE “I’m Eighteen”
PERFORMER “Alice Cooper”
INDEX 00 03:05:34
INDEX 01 03:09:05
TRACK 03 AUDIO
TITLE “Long Way To Go”
PERFORMER “Alice Cooper”
INDEX 00 06:06:23
INDEX 01 06:09:38
TRACK 04 AUDIO
TITLE “Black Juju”
PERFORMER “Alice Cooper”
INDEX 01 09:12:12
TRACK 05 AUDIO
TITLE “Is It My Body”
PERFORMER “Alice Cooper”
INDEX 00 18:18:03
INDEX 01 18:18:68
TRACK 06 AUDIO
TITLE “Hallowed Be My Name”
PERFORMER “Alice Cooper”
INDEX 01 20:58:08
TRACK 07 AUDIO
TITLE “Second Coming”
PERFORMER “Alice Cooper”
INDEX 00 23:26:56
INDEX 01 23:29:50
TRACK 08 AUDIO
TITLE “Ballad Of Dwight Fry”
PERFORMER “Alice Cooper”
INDEX 01 26:33:54
TRACK 09 AUDIO
TITLE “Sun Arise”
PERFORMER “Alice Cooper”
INDEX 01 33:05:02

Leave a Reply

Your email address will not be published. Required fields are marked *

This site uses Akismet to reduce spam. Learn how your comment data is processed.