Alice Cooper – Killer (Limited Remastered Japanese Edition)




Artist: Alice Cooper
Year: 1971/2011
Genre: Rock
Notes: Discogs
Add. Notes: Limited Remastered Japanese Edition
Cover incl.: Yes
Encoder: FLAC
Bitrate: ~900 kBit/s (44.1 kHz/16 Bit/s)
Log & Cue incl.: Yes
Size: 405,87 MB
Password: “slam” (without ” “)


All Downloads/Hosters are compatible

Download 1
Turbobit.net
Rapidgator.net
UploadEver.com
KatFile.com
UsersDrive.com
Download 2
Turbobit.net
Rapidgator.net
UploadEver.com
KatFile.com
UsersDrive.com
Download 3
Turbobit.net
Rapidgator.net
UploadEver.com
KatFile.com
UsersDrive.com

Tracklist:

1. Under My Wheels
2. Be My Lover
3. Halo Of Flies
4. Desperado
5. You Drive Me Nervous
6. Yeah, Yeah, Yeah
7. Dead Babies
8. Killer

EAC-Log, CUE-Sheed & NFO:

Click to open spoiler
Exact Audio Copy V1.0 beta 3 from 29. August 2011

EAC extraction logfile from 8. February 2012, 21:10

Alice Cooper / Killer

Used drive : HL-DT-STDVDRAM GSA-H60N Adapter: 2 ID: 0

Read mode : Secure
Utilize accurate stream : Yes
Defeat audio cache : Yes
Make use of C2 pointers : No

Read offset correction : 667
Overread into Lead-In and Lead-Out : No
Fill up missing offset samples with silence : Yes
Delete leading and trailing silent blocks : No
Null samples used in CRC calculations : Yes
Used interface : Native Win32 interface for Win NT & 2000

Used output format : Internal WAV Routines
Sample format : 44.100 Hz; 16 Bit; Stereo

TOC of the extracted CD

Track | Start | Length | Start sector | End sector
———————————————————
1 | 0:00.00 | 2:52.11 | 0 | 12910
2 | 2:52.11 | 3:22.18 | 12911 | 28078
3 | 6:14.29 | 8:22.27 | 28079 | 65755
4 | 14:36.56 | 3:31.14 | 65756 | 81594
5 | 18:07.70 | 2:28.34 | 81595 | 92728
6 | 20:36.29 | 3:37.57 | 92729 | 109060
7 | 24:14.11 | 5:45.10 | 109061 | 134945
8 | 29:59.21 | 6:59.70 | 134946 | 166440

Range status and errors

Selected range

Filename C:\Documents and Settings\Admin\Рабочий стол\Lossless Galaxy Rip by ALLexxess\Alice Cooper 12 Mini LP SHM-CD Warner Music Japan 2011-2012\1971 Killer\Alice Cooper – Killer.wav

Peak level 100.0 %
Extraction speed 5.5 X
Range quality 100.0 %
Test CRC E0E9C90F
Copy CRC E0E9C90F
Copy OK

No errors occurred

AccurateRip summary

Track 1 accurately ripped (confidence 1) [86E2B4EE] (AR v2)
Track 2 accurately ripped (confidence 1) [80BFFE40] (AR v2)
Track 3 accurately ripped (confidence 1) [6076595A] (AR v2)
Track 4 accurately ripped (confidence 1) [BABE27B3] (AR v2)
Track 5 accurately ripped (confidence 1) [B9E8FED1] (AR v2)
Track 6 accurately ripped (confidence 1) [1E2EAA4D] (AR v2)
Track 7 accurately ripped (confidence 1) [E518D535] (AR v2)
Track 8 accurately ripped (confidence 1) [5A19AEC0] (AR v2)

All tracks accurately ripped

End of status report

==== Log checksum 7F9B962DD3BCB0DDAE0E8972B2D88DB7F7C4CAA6FF31713F7ED866B5C441C3E2 ====

REM GENRE “Rock / Hard Rock / Glam Rock”
REM DATE 1971
REM DISCID 6F08AB08
REM COMMENT “ExactAudioCopy v1.0b3”
PERFORMER “Alice Cooper”
TITLE “Killer”
FILE “Alice Cooper – Killer.flac” WAVE
TRACK 01 AUDIO
TITLE “Under My Wheels”
PERFORMER “Alice Cooper”
INDEX 01 00:00:00
TRACK 02 AUDIO
TITLE “Be My Lover”
PERFORMER “Alice Cooper”
INDEX 00 02:49:53
INDEX 01 02:52:11
TRACK 03 AUDIO
TITLE “Halo of Files”
PERFORMER “Alice Cooper”
INDEX 00 06:11:40
INDEX 01 06:14:29
TRACK 04 AUDIO
TITLE “Desperado”
PERFORMER “Alice Cooper”
INDEX 00 14:34:26
INDEX 01 14:36:56
TRACK 05 AUDIO
TITLE “You Drive Me Nervous”
PERFORMER “Alice Cooper”
INDEX 00 18:06:35
INDEX 01 18:07:70
TRACK 06 AUDIO
TITLE “Yeah, Yeah, Yeah”
PERFORMER “Alice Cooper”
INDEX 00 20:34:04
INDEX 01 20:36:29
TRACK 07 AUDIO
TITLE “Dead Babies”
PERFORMER “Alice Cooper”
INDEX 00 24:11:53
INDEX 01 24:14:11
TRACK 08 AUDIO
TITLE “Killer”
PERFORMER “Alice Cooper”
INDEX 01 29:59:21


Leave a Reply

Your email address will not be published. Required fields are marked *

This site uses Akismet to reduce spam. Learn how your comment data is processed.