Alice Cooper – Goes To Hell (Japanese Edition)




Artist: Alice Cooper
Year: 1976
Genre: Rock
Notes: Discogs
Add. Notes: Japanese Edition
Cover incl.: Yes
Encoder: FLAC
Bitrate: ~900 kBit/s (44.1 kHz/16 Bit/s)
Log & Cue incl.: Yes
Size: 368,8 MB
Password: “slam” (without ” “)


All Downloads/Hosters are compatible

Download 1
Turbobit.net
Rapidgator.net
UploadEver.com
KatFile.com
UsersDrive.com
Download 2
Turbobit.net
Rapidgator.net
UploadEver.com
KatFile.com
UsersDrive.com
Download 3
Turbobit.net
Rapidgator.net
UploadEver.com
KatFile.com
UsersDrive.com

Tracklist:

1. Go To Hell 
2. You Gotta Dance 
3. I'm The Coolest 
4. Didn't We Meet 
5. I Never Cry 
6. Give The Kid A Break 
7. Guilty 
8. Wake Me Gently 
9. Wish You Were Here 
10. I'm Always Chasing Rainbows 
11. Going Home

EAC-Log, CUE-Sheed & NFO:

Click to open spoiler

EAC extraction logfile from 5. February 2012, 16:47

Alice Cooper / Goes To Hell

Used drive : HL-DT-STDVDRAM GSA-H60N Adapter: 2 ID: 0

Read mode : Secure
Utilize accurate stream : Yes
Defeat audio cache : Yes
Make use of C2 pointers : No

Read offset correction : 667
Overread into Lead-In and Lead-Out : No
Fill up missing offset samples with silence : Yes
Delete leading and trailing silent blocks : No
Null samples used in CRC calculations : Yes
Used interface : Native Win32 interface for Win NT & 2000

Used output format : Internal WAV Routines
Sample format : 44.100 Hz; 16 Bit; Stereo

TOC of the extracted CD

Track | Start | Length | Start sector | End sector
———————————————————
1 | 0:00.00 | 5:15.38 | 0 | 23662
2 | 5:15.38 | 2:44.46 | 23663 | 36008
3 | 8:00.09 | 3:57.18 | 36009 | 53801
4 | 11:57.27 | 4:15.38 | 53802 | 72964
5 | 16:12.65 | 3:43.54 | 72965 | 89743
6 | 19:56.44 | 4:14.33 | 89744 | 108826
7 | 24:11.02 | 3:21.20 | 108827 | 123921
8 | 27:32.22 | 5:02.64 | 123922 | 146635
9 | 32:35.11 | 4:35.66 | 146636 | 167326
10 | 37:11.02 | 2:07.70 | 167327 | 176921
11 | 39:18.72 | 3:48.23 | 176922 | 194044

Range status and errors

Selected range

Filename C:\Documents and Settings\Admin\Рабочий стол\Lossless Galaxy Rip by ALLexxess\Alice Cooper 12 Mini LP SHM-CD Warner Music Japan 2011-2012\1976 Goes To Hell\Alice Cooper – Goes To Hell.wav

Peak level 100.0 %
Extraction speed 5.6 X
Range quality 99.9 %
Test CRC 1182737E
Copy CRC 1182737E
Copy OK

No errors occurred

AccurateRip summary

Track 1 not present in database
Track 2 not present in database
Track 3 not present in database
Track 4 not present in database
Track 5 not present in database
Track 6 not present in database
Track 7 not present in database
Track 8 not present in database
Track 9 not present in database
Track 10 not present in database
Track 11 not present in database

None of the tracks are present in the AccurateRip database

End of status report

==== Log checksum B17E881F042BA14BF0E85ACB671907E0462E48DA33090DA85044B9DA8BFBCDE9 ====[/pre]

REM GENRE “Rock / Hard Rock / Glam Rock”
REM DATE 1976
REM DISCID 9B0A1B0B
REM COMMENT “ExactAudioCopy v1.0b3”
PERFORMER “Alice Cooper”
TITLE “Goes To Hell”
FILE “Alice Cooper – Goes To Hell.flac” WAVE
TRACK 01 AUDIO
TITLE “Go To Hell”
PERFORMER “Alice Cooper”
INDEX 01 00:00:00
TRACK 02 AUDIO
TITLE “You Gotta Dance”
PERFORMER “Alice Cooper”
INDEX 00 05:14:09
INDEX 01 05:15:38
TRACK 03 AUDIO
TITLE “I’m The Coolest”
PERFORMER “Alice Cooper”
INDEX 01 08:00:09
TRACK 04 AUDIO
TITLE “Didn’t We Meet”
PERFORMER “Alice Cooper”
INDEX 01 11:57:27
TRACK 05 AUDIO
TITLE “I Never Cry”
PERFORMER “Alice Cooper”
INDEX 01 16:12:65
TRACK 06 AUDIO
TITLE “Give The Kid A Break”
PERFORMER “Alice Cooper”
INDEX 00 19:55:31
INDEX 01 19:56:44
TRACK 07 AUDIO
TITLE “Guilty”
PERFORMER “Alice Cooper”
INDEX 01 24:11:02
TRACK 08 AUDIO
TITLE “Wake Me Gently”
PERFORMER “Alice Cooper”
INDEX 00 27:30:09
INDEX 01 27:32:22
TRACK 09 AUDIO
TITLE “Wish You Were Here”
PERFORMER “Alice Cooper”
INDEX 01 32:35:11
TRACK 10 AUDIO
TITLE “I’m Always Chasing Rainbows”
PERFORMER “Alice Cooper”
INDEX 01 37:11:02
TRACK 11 AUDIO
TITLE “Going Home”
PERFORMER “Alice Cooper”
INDEX 01 39:18:72
[/spoiler]

Leave a Reply

Your email address will not be published. Required fields are marked *

This site uses Akismet to reduce spam. Learn how your comment data is processed.