Alice Cooper – From The Inside (Japanese Edition)




Artist: Alice Cooper
Year: 1978/2012
Genre: Rock
Notes: Discogs
Add. Notes: Japanese Edition
Cover incl.: Yes
Encoder: FLAC
Bitrate: ~900 kBit/s (44.1 kHz/16 Bit/s)
Log & Cue incl.: Yes
Size: 405,97 MB
Password: “slam” (without ” “)


All Downloads/Hosters are compatible

Download 1
Turbobit.net
Rapidgator.net
KatFile.com
UploadRar.com
Download 2
Turbobit.net
Rapidgator.net
KatFile.com
UploadRar.com
Download 3
Turbobit.net
Rapidgator.net
KatFile.com
UploadRar.com

Tracklist:

1. From The Inside 	
2. Wish I Were Born In Beverly Hills 	
3. The Quiet Room 	
4. Nurse Rozetta 	
5. Millie And Billie 	
6. Serious 	
7. How You Gonna See Me Now 	
8. For Veronica's Sake 	
9. Jacknife Johnny 	
10.	Inmates (We're All Crazy)

EAC-Log, CUE-Sheed & NFO:

Click to open spoiler
Exact Audio Copy V1.0 beta 3 from 29. August 2011

EAC extraction logfile from 6. February 2012, 19:58

Alice Cooper / From The Inside

Used drive : HL-DT-STDVDRAM GSA-H60N Adapter: 2 ID: 0

Read mode : Secure
Utilize accurate stream : Yes
Defeat audio cache : Yes
Make use of C2 pointers : No

Read offset correction : 667
Overread into Lead-In and Lead-Out : No
Fill up missing offset samples with silence : Yes
Delete leading and trailing silent blocks : No
Null samples used in CRC calculations : Yes
Used interface : Native Win32 interface for Win NT & 2000

Used output format : Internal WAV Routines
Sample format : 44.100 Hz; 16 Bit; Stereo

TOC of the extracted CD

Track | Start | Length | Start sector | End sector
———————————————————
1 | 0:00.00 | 3:54.34 | 0 | 17583
2 | 3:54.34 | 3:37.22 | 17584 | 33880
3 | 7:31.56 | 3:52.21 | 33881 | 51301
4 | 11:24.02 | 4:14.55 | 51302 | 70406
5 | 15:38.57 | 4:12.72 | 70407 | 89378
6 | 19:51.54 | 2:44.55 | 89379 | 101733
7 | 22:36.34 | 3:57.43 | 101734 | 119551
8 | 26:34.02 | 3:37.06 | 119552 | 135832
9 | 30:11.08 | 3:45.39 | 135833 | 152746
10 | 33:56.47 | 5:05.32 | 152747 | 175653

Range status and errors

Selected range

Filename C:\Documents and Settings\Admin\Рабочий стол\Lossless Galaxy Rip by ALLexxess\Alice Cooper 12 Mini LP SHM-CD Warner Music Japan 2011-2012\1978 From The Inside\Alice Cooper – From The Inside.wav

Peak level 100.0 %
Extraction speed 5.6 X
Range quality 100.0 %
Test CRC 4D137D50
Copy CRC 4D137D50
Copy OK

No errors occurred

AccurateRip summary

Track 1 not present in database
Track 2 not present in database
Track 3 not present in database
Track 4 not present in database
Track 5 not present in database
Track 6 not present in database
Track 7 not present in database
Track 8 not present in database
Track 9 not present in database
Track 10 not present in database

None of the tracks are present in the AccurateRip database

End of status report

==== Log checksum 101A081DA73E189AF69F61FEF3ABF42F75E043949DD416E954A0BC00F9A1D57B ====

REM GENRE “Rock / Hard Rock / Glam Rock”
REM DATE 1978
REM DISCID 8809260A
REM COMMENT “ExactAudioCopy v1.0b3”
PERFORMER “Alice Cooper”
TITLE “From The Inside”
FILE “Alice Cooper – From The Inside.flac” WAVE
TRACK 01 AUDIO
TITLE “From The Inside”
PERFORMER “Alice Cooper”
INDEX 01 00:00:00
TRACK 02 AUDIO
TITLE “Wish I Were Born In Beverly Hills”
PERFORMER “Alice Cooper”
INDEX 01 03:54:34
TRACK 03 AUDIO
TITLE “The Quiet Room”
PERFORMER “Alice Cooper”
INDEX 00 07:27:66
INDEX 01 07:31:56
TRACK 04 AUDIO
TITLE “Nurse Rozetta”
PERFORMER “Alice Cooper”
INDEX 01 11:24:02
TRACK 05 AUDIO
TITLE “Millie And Billie”
PERFORMER “Alice Cooper”
INDEX 01 15:38:57
TRACK 06 AUDIO
TITLE “Serious”
PERFORMER “Alice Cooper”
INDEX 00 19:50:10
INDEX 01 19:51:54
TRACK 07 AUDIO
TITLE “How You Gonna See Me Now”
PERFORMER “Alice Cooper”
INDEX 00 22:35:54
INDEX 01 22:36:34
TRACK 08 AUDIO
TITLE “For Veronica’s Sake”
PERFORMER “Alice Cooper”
INDEX 00 26:32:52
INDEX 01 26:34:02
TRACK 09 AUDIO
TITLE “Jackknife Johnny”
PERFORMER “Alice Cooper”
INDEX 01 30:11:08
TRACK 10 AUDIO
TITLE “Inmates (We’re All Crazy)”
PERFORMER “Alice Cooper”
INDEX 00 33:54:38
INDEX 01 33:56:47


Leave a Reply

Your email address will not be published. Required fields are marked *

This site uses Akismet to reduce spam. Learn how your comment data is processed.