Alice Cooper – Easy Action (Japanese Edition)




Artist: Alice Cooper
Year: 1970
Genre: Rock
Notes: Discogs
Add. Notes: Japanese Edition
Cover incl.: Yes
Encoder: FLAC
Bitrate: ~900 kBit/s (44.1 kHz/16 Bit/s)
Log & Cue incl.: Yes
Size: 332,32 MB
Password: “slam” (without ” “)


All Downloads/Hosters are compatible

Download 1
Turbobit.net
Rapidgator.net
UploadEver.com
KatFile.com
UsersDrive.com
Download 2
Turbobit.net
Rapidgator.net
UploadEver.com
KatFile.com
UsersDrive.com
Download 3
Turbobit.net
Rapidgator.net
UploadEver.com
KatFile.com
UsersDrive.com

Tracklist:

1. Mr. & Misdemeanor 
2. Shoe Salesman 
3. Still No Air 
4. Below Your Means 
5. Return Of The Spiders 
6. Laughing At Me 
7. Refrigerator Heaven 
8. Beautiful Flyaway 
9. Lay Down And Die, Goodbye

EAC-Log, CUE-Sheed & NFO:

Click to open spoiler
Exact Audio Copy V1.0 beta 3 from 29. August 2011

EAC extraction logfile from 6. February 2012, 20:40

Alice Cooper / Easy Action

Used drive : HL-DT-STDVDRAM GSA-H60N Adapter: 2 ID: 0

Read mode : Secure
Utilize accurate stream : Yes
Defeat audio cache : Yes
Make use of C2 pointers : No

Read offset correction : 667
Overread into Lead-In and Lead-Out : No
Fill up missing offset samples with silence : Yes
Delete leading and trailing silent blocks : No
Null samples used in CRC calculations : Yes
Used interface : Native Win32 interface for Win NT & 2000

Used output format : Internal WAV Routines
Sample format : 44.100 Hz; 16 Bit; Stereo

TOC of the extracted CD

Track | Start | Length | Start sector | End sector
———————————————————
1 | 0:00.00 | 3:11.53 | 0 | 14377
2 | 3:11.53 | 2:38.51 | 14378 | 26278
3 | 5:50.29 | 2:34.45 | 26279 | 37873
4 | 8:24.74 | 6:54.69 | 37874 | 68992
5 | 15:19.68 | 4:32.16 | 68993 | 89408
6 | 19:52.09 | 2:16.33 | 89409 | 99641
7 | 22:08.42 | 2:01.38 | 99642 | 108754
8 | 24:10.05 | 3:01.28 | 108755 | 122357
9 | 27:11.33 | 7:37.37 | 122358 | 156669

Range status and errors

Selected range

Filename C:\Documents and Settings\Admin\Рабочий стол\Lossless Galaxy Rip by ALLexxess\Alice Cooper 12 Mini LP SHM-CD Warner Music Japan 2011-2012\1970 Easy Action\Alice Cooper – Easy Action.wav

Peak level 100.0 %
Extraction speed 5.3 X
Range quality 99.9 %
Test CRC 79085110
Copy CRC 79085110
Copy OK

No errors occurred

AccurateRip summary

Track 1 not present in database
Track 2 not present in database
Track 3 not present in database
Track 4 not present in database
Track 5 not present in database
Track 6 not present in database
Track 7 not present in database
Track 8 not present in database
Track 9 not present in database

None of the tracks are present in the AccurateRip database

End of status report

==== Log checksum 178A0E7F6BF7154CA1F918FA790D6408D44A5FAF5E164B6BE9810F49C53BCEB4 ====

REM GENRE “Rock / Hard Rock / Glam Rock”
REM DATE 1970
REM DISCID 5F082809
REM COMMENT “ExactAudioCopy v1.0b3”
PERFORMER “Alice Cooper”
TITLE “Easy Action”
FILE “Alice Cooper – Easy Action.flac” WAVE
TRACK 01 AUDIO
TITLE “Mr. & Misdemeanor”
PERFORMER “Alice Cooper”
INDEX 01 00:00:00
TRACK 02 AUDIO
TITLE “Shoe Salesman”
PERFORMER “Alice Cooper”
INDEX 00 03:10:13
INDEX 01 03:11:53
TRACK 03 AUDIO
TITLE “Still No Air”
PERFORMER “Alice Cooper”
INDEX 01 05:50:29
TRACK 04 AUDIO
TITLE “Below Your Means”
PERFORMER “Alice Cooper”
INDEX 00 08:22:28
INDEX 01 08:24:74
TRACK 05 AUDIO
TITLE “Return Of The Spiders”
PERFORMER “Alice Cooper”
INDEX 00 15:18:49
INDEX 01 15:19:68
TRACK 06 AUDIO
TITLE “Laughing At Me”
PERFORMER “Alice Cooper”
INDEX 00 19:50:36
INDEX 01 19:52:09
TRACK 07 AUDIO
TITLE “Refrigererator Heaven”
PERFORMER “Alice Cooper”
INDEX 00 22:07:09
INDEX 01 22:08:42
TRACK 08 AUDIO
TITLE “Beautiful Flyaway”
PERFORMER “Alice Cooper”
INDEX 00 24:07:69
INDEX 01 24:10:05
TRACK 09 AUDIO
TITLE “Lay Down And Die, Goodbye”
PERFORMER “Alice Cooper”
INDEX 01 27:11:33

Leave a Reply

Your email address will not be published. Required fields are marked *

This site uses Akismet to reduce spam. Learn how your comment data is processed.