Alice Cooper – Billion Dollar Babies (Limited Remastered Edition)




Artist: Alice Cooper
Year: 2014
Genre: Rock
Notes: Discogs
Add. Notes: Limited Remastered Edition
Cover incl.: Yes
Encoder: FLAC
Bitrate: ~800 kBit/s (44.1 kHz/16 Bit/s)
Log & Cue incl.: Yes
Size: 320,13 MB
Password: “slam” (without ” “)


All Downloads/Hosters are compatible

Download 1
Turbobit.net
Rapidgator.net
UploadEver.com
KatFile.com
UsersDrive.com
Download 2
Turbobit.net
Rapidgator.net
UploadEver.com
KatFile.com
UsersDrive.com
Download 3
Turbobit.net
Rapidgator.net
UploadEver.com
KatFile.com
UsersDrive.com

Tracklist:

1. Hello Hooray 4:14
2. Raped And Freezin' 3:15
3. Elected 4:05
4. Billion Dollar Babies 3:39
5. Unfinished Sweet 6:17
6. No More Mr. Nice Guy 3:05
7. Generation Landslide 4:34
8. Sick Things 4:18
9. Mary-Ann 2:19
10. I Love The Dead 5:08

EAC-Log, CUE-Sheed & NFO:

Click to open spoiler
REM GENRE “Hard Rock”
REM DATE 1973
REM DISCID 8109AA0A
REM COMMENT “www.FLACMANIA.ru – Музыка LOSSLESS”
PERFORMER “Alice Cooper”
TITLE “Billion Dollar Babies [flacmania.ru]”
FILE “Alice Cooper – Billion Dollar Babies [flacmania.ru].flac” WAVE
TRACK 01 AUDIO
TITLE “Hello Hooray”
PERFORMER “Alice Cooper”
INDEX 01 00:00:00
TRACK 02 AUDIO
TITLE “Raped And Freezin'”
PERFORMER “Alice Cooper”
INDEX 01 04:14:73
TRACK 03 AUDIO
TITLE Elected
PERFORMER “Alice Cooper”
INDEX 01 07:34:00
TRACK 04 AUDIO
TITLE “Billion Dollar Babies”
PERFORMER “Alice Cooper”
INDEX 01 11:38:58
TRACK 05 AUDIO
TITLE “Unfinished Sweet”
PERFORMER “Alice Cooper”
INDEX 01 15:26:13
TRACK 06 AUDIO
TITLE “No More Mr. Nice Guy”
PERFORMER “Alice Cooper”
INDEX 01 21:51:10
TRACK 07 AUDIO
TITLE “Generation Landslide”
PERFORMER “Alice Cooper”
INDEX 01 24:57:38
TRACK 08 AUDIO
TITLE “Sick Things”
PERFORMER “Alice Cooper”
INDEX 01 29:28:01
TRACK 09 AUDIO
TITLE “Mary Ann”
PERFORMER “Alice Cooper”
INDEX 01 33:45:10
TRACK 10 AUDIO
TITLE “I Love The Dead”
PERFORMER “Alice Cooper”
INDEX 01 36:05:70

Leave a Reply

Your email address will not be published. Required fields are marked *

This site uses Akismet to reduce spam. Learn how your comment data is processed.