Alice Cooper – Billion Dollar Babies (Japanese Edition)




Artist: Alice Cooper
Year: 1973
Genre: Rock
Notes: Discogs
Add. Notes: Japanese Edition
Cover incl.: Yes
Encoder: FLAC
Bitrate: ~900 kBit/s (44.1 kHz/16 Bit/s)
Log & Cue incl.: Yes
Size: 413,62 MB
Password: “slam” (without ” “)


All Downloads/Hosters are compatible

Download 1
Turbobit.net
Rapidgator.net
UploadEver.com
KatFile.com
UsersDrive.com
Download 2
Turbobit.net
Rapidgator.net
UploadEver.com
KatFile.com
UsersDrive.com
Download 3
Turbobit.net
Rapidgator.net
UploadEver.com
KatFile.com
UsersDrive.com

Tracklist:

1 - Hello Hooray - 4:14
2 - Raped And Freezin' - 3:15
3 - Elected - 4:05
4 - Billion Dollar Babies - 3:39
5 - Unfinished Sweet - 6:17
6 - No More Mr. Nice Guy - 3:05
7 - Generation Landslide - 4:31
8 - Sick Things - 4:18
9 - Mary Ann - 2:19
10 - I Love The Dead - 5:08

EAC-Log, CUE-Sheed & NFO:

Click to open spoiler
Exact Audio Copy V1.0 beta 3 from 29. August 2011

EAC extraction logfile from 7. February 2012, 20:59

Alice Cooper / Billion Dollar Babies

Used drive : HL-DT-STDVDRAM GSA-H60N Adapter: 2 ID: 0

Read mode : Secure
Utilize accurate stream : Yes
Defeat audio cache : Yes
Make use of C2 pointers : No

Read offset correction : 667
Overread into Lead-In and Lead-Out : No
Fill up missing offset samples with silence : Yes
Delete leading and trailing silent blocks : No
Null samples used in CRC calculations : Yes
Used interface : Native Win32 interface for Win NT & 2000

Used output format : Internal WAV Routines
Sample format : 44.100 Hz; 16 Bit; Stereo

TOC of the extracted CD

Track | Start | Length | Start sector | End sector
———————————————————
1 | 0:00.00 | 4:14.33 | 0 | 19082
2 | 4:14.33 | 3:17.45 | 19083 | 33902
3 | 7:32.03 | 4:06.21 | 33903 | 52373
4 | 11:38.24 | 3:40.24 | 52374 | 68897
5 | 15:18.48 | 6:17.12 | 68898 | 97184
6 | 21:35.60 | 3:06.66 | 97185 | 111200
7 | 24:42.51 | 4:32.34 | 111201 | 131634
8 | 29:15.10 | 4:14.73 | 131635 | 150757
9 | 33:30.08 | 2:23.29 | 150758 | 161511
10 | 35:53.37 | 5:06.12 | 161512 | 184473

Range status and errors

Selected range

Filename C:\Documents and Settings\Admin\Рабочий стол\Lossless Galaxy Rip by ALLexxess\Alice Cooper 12 Mini LP SHM-CD Warner Music Japan 2011-2012\1973 Billion Dollar Babies\Alice Cooper – Billion Dollar Babies.wav

Peak level 100.0 %
Extraction speed 5.6 X
Range quality 100.0 %
Test CRC F0D9E06E
Copy CRC F0D9E06E
Copy OK

No errors occurred

AccurateRip summary

Track 1 not present in database
Track 2 not present in database
Track 3 not present in database
Track 4 not present in database
Track 5 not present in database
Track 6 not present in database
Track 7 not present in database
Track 8 not present in database
Track 9 not present in database
Track 10 not present in database

None of the tracks are present in the AccurateRip database

End of status report

==== Log checksum 3B037A93AEA346CDE06232660540EC0A7C97F31DC41BA4A691DE78D25866A046 ====

REM GENRE “Rock / Hard Rock / Glam Rock”
REM DATE 1973
REM DISCID 78099B0A
REM COMMENT “ExactAudioCopy v1.0b3”
PERFORMER “Alice Cooper”
TITLE “Billion Dollar Babies”
FILE “Alice Cooper – Billion Dollar Babies.flac” WAVE
TRACK 01 AUDIO
TITLE “Hello Hooray”
PERFORMER “Alice Cooper”
INDEX 01 00:00:00
TRACK 02 AUDIO
TITLE “Raped And Freezin'”
PERFORMER “Alice Cooper”
INDEX 01 04:14:33
TRACK 03 AUDIO
TITLE “Elected”
PERFORMER “Alice Cooper”
INDEX 00 07:30:04
INDEX 01 07:32:03
TRACK 04 AUDIO
TITLE “Billion Dollar Babies”
PERFORMER “Alice Cooper”
INDEX 00 11:36:52
INDEX 01 11:38:24
TRACK 05 AUDIO
TITLE “Unfinished Sweet”
PERFORMER “Alice Cooper”
INDEX 00 15:16:63
INDEX 01 15:18:48
TRACK 06 AUDIO
TITLE “No More Mister Nice Guy”
PERFORMER “Alice Cooper”
INDEX 00 21:34:74
INDEX 01 21:35:60
TRACK 07 AUDIO
TITLE “Generation Landslide”
PERFORMER “Alice Cooper”
INDEX 00 24:41:04
INDEX 01 24:42:51
TRACK 08 AUDIO
TITLE “Sick Things”
PERFORMER “Alice Cooper”
INDEX 00 29:13:29
INDEX 01 29:15:10
TRACK 09 AUDIO
TITLE “Mary Ann”
PERFORMER “Alice Cooper”
INDEX 01 33:30:08
TRACK 10 AUDIO
TITLE “I Love The Dead”
PERFORMER “Alice Cooper”
INDEX 00 35:51:47
INDEX 01 35:53:37

Leave a Reply

Your email address will not be published. Required fields are marked *

Enter the text from the image below
 

This site uses Akismet to reduce spam. Learn how your comment data is processed.