Agnostic Front – Warriors




Artist: Agnostic Front
Year: 2007
Genre: Hardcore
Notes: Discogs
Add. Notes:
Cover incl.: Yes
Encoder: FLAC
Bitrate: ~1100 kBit/s (44.1 kHz/16 Bit/s)
Log & Cue incl.: Yes
Size: 250,76 MB
Password: “slam” (without ” “)


All Downloads/Hosters are compatible

Download 1
Turbobit.net
Rapidgator.net
KatFile.com
UploadRar.com
Download 2
Turbobit.net
Rapidgator.net
KatFile.com
UploadRar.com

Tracklist:

1 - Addiction - 2:21
2 - Dead To Me - 2:52
3 - Outraged - 1:54
4 - Warriors - 2:08
5 - Black And Blue - 2:35
6 - Change Your Ways - 1:53
7 - For My Family - 2:23
8 - No Regrets - 1:49
9 - Revenge - 3:12
10 - We Want The Truth - 2:24
11 - By My Side - 2:52
12 - Come Alive - 2:02
13 - All These Years - 1:59
14 - Forgive Me Mother - 1:57

EAC-Log, CUE-Sheed & NFO:

Click to open spoiler
Exact Audio Copy V0.99 prebeta 5 from 4. May 2009

Отчёт EAC об извлечении, выполненном 26. июня 2010, 16:26

Agnostic Front / Warriors

Дисковод: HL-DT-STBD-RE GGW-H20L Adapter: 1 ID: 0

Режим чтения : Достоверность
Использование точного потока : Да
Отключение кэша аудио : Да
Использование указателей C2 : Нет

Коррекция смещения при чтении : 667
Способность читать области Lead-in и Lead-out : Нет
Заполнение пропущенных сэмплов тишиной : Да
Удаление блоков с тишиной в начале и конце : Нет
При вычислениях CRC использовались нулевые сэмплы : Да
Интерфейс : Встроенный Win32-интерфейс для Win NT/2000

Выходной формат : Пользовательский кодировщик
Выбранный битрейт : 768 kBit/s
Качество : Высокий
Добавление ID3-тэга : Нет
Утилита сжатия : C:\FLAC.EXE
Дополнительные параметры : -6 -V -T “ARTIST=%a” -T “TITLE=%t” -T “ALBUM=%g” -T “DATE=%y” -T “TRACKNUMBER=%n” -T “GENRE=%m” -T “COMMENT=%e” %s -o %d

TOC извлечённого CD

Трек | Старт | Длительность | Начальный сектор | Конечный сектор
———————————————————————
1 | 0:00.00 | 2:20.50 | 0 | 10549
2 | 2:20.50 | 2:52.31 | 10550 | 23480
3 | 5:13.06 | 1:54.31 | 23481 | 32061
4 | 7:07.37 | 2:07.55 | 32062 | 41641
5 | 9:15.17 | 2:34.63 | 41642 | 53254
6 | 11:50.05 | 1:53.18 | 53255 | 61747
7 | 13:43.23 | 2:22.44 | 61748 | 72441
8 | 16:05.67 | 1:48.68 | 72442 | 80609
9 | 17:54.60 | 3:12.06 | 80610 | 95015
10 | 21:06.66 | 2:24.01 | 95016 | 105816
11 | 23:30.67 | 2:51.52 | 105817 | 118693
12 | 26:22.44 | 2:02.14 | 118694 | 127857
13 | 28:24.58 | 1:58.73 | 127858 | 136780
14 | 30:23.56 | 1:56.53 | 136781 | 145533

Характеристики диапазона извлечения и сообщения об ошибках

Выбранный диапазон

Имя файла C:\Agnostic Front – Warriors.wav

Пиковый уровень 100.0 %
Качество диапазона 100.0 %
CRC копии 1E417FAD
Копирование… OK

Ошибок не произошло

Конец отчёта

REM GENRE Hardcore
REM DATE 2007
REM DISCID B807940E
REM COMMENT “ExactAudioCopy v0.99pb5”
PERFORMER “Agnostic Front”
TITLE “Warriors”
FILE “Agnostic Front – Warriors.flac” WAVE
TRACK 01 AUDIO
TITLE “Addiction”
PERFORMER “Agnostic Front”
INDEX 01 00:00:00
TRACK 02 AUDIO
TITLE “Dead To Me”
PERFORMER “Agnostic Front”
INDEX 01 02:20:50
TRACK 03 AUDIO
TITLE “Outraged”
PERFORMER “Agnostic Front”
INDEX 01 05:13:06
TRACK 04 AUDIO
TITLE “Warriors”
PERFORMER “Agnostic Front”
INDEX 01 07:07:37
TRACK 05 AUDIO
TITLE “Black And Blue”
PERFORMER “Agnostic Front”
INDEX 01 09:15:17
TRACK 06 AUDIO
TITLE “Change Your Ways”
PERFORMER “Agnostic Front”
INDEX 01 11:50:05
TRACK 07 AUDIO
TITLE “For My Family”
PERFORMER “Agnostic Front”
INDEX 01 13:43:23
TRACK 08 AUDIO
TITLE “No Regrets”
PERFORMER “Agnostic Front”
INDEX 01 16:05:67
TRACK 09 AUDIO
TITLE “Revenge”
PERFORMER “Agnostic Front”
INDEX 01 17:54:60
TRACK 10 AUDIO
TITLE “We Want The Truth”
PERFORMER “Agnostic Front”
INDEX 01 21:06:66
TRACK 11 AUDIO
TITLE “By My Side”
PERFORMER “Agnostic Front”
INDEX 01 23:30:67
TRACK 12 AUDIO
TITLE “Come Alive”
PERFORMER “Agnostic Front”
INDEX 01 26:22:44
TRACK 13 AUDIO
TITLE “All These Years”
PERFORMER “Agnostic Front”
INDEX 01 28:24:58
TRACK 14 AUDIO
TITLE “Forgive Me, Mother”
PERFORMER “Agnostic Front”
INDEX 01 30:23:56


Leave a Reply

Your email address will not be published. Required fields are marked *

This site uses Akismet to reduce spam. Learn how your comment data is processed.