Agnostic Front – Victim in Pain (Remastered)




Artist: Agnostic Front
Year: 2009
Genre: Hardcore
Notes: Discogs
Add. Notes: Remastered
Cover incl.: Yes
Encoder: FLAC
Bitrate: ~900 kBit/s (44.1 kHz/16 Bit/s)
Log & Cue incl.: Yes
Size: 138,8 MB
Password: “slam” (without ” “)


All Downloads/Hosters are compatible

Download 1
Turbobit.net
Rapidgator.net
KatFile.com
UploadRar.com
Download 2
Turbobit.net
Rapidgator.net
KatFile.com
UploadRar.com
Download 3
Turbobit.net
Rapidgator.net
KatFile.com
UploadRar.com

Tracklist:

Victim In Pain :
1 - Victim In Pain - 0:48
2 - Remind Them - 1:04
3 - Blind Justice - 1:26
4 - Last Warning - 0:46
5 - United And Strong - 1:09
6 - Power - 1:44
7 - Hiding Inside - 1:20
8 - Fascist Attitudes - 2:04
9 - Society Suckers - 1:12
10 - Your Mistake - 1:34
11 - With Time - 2:15
Bonus Material United Blood EP :
12 - No One Rules - 0:24
13 - Final War - 0:22
14 - Last Warning - 0:47
15 - Traitor - 0:24
16 - Friend Or Foe - 1:15
17 - United Blood - 1:12
18 - Fight - 0:15
19 - Discriminate Me - 0:42
20 - In Control - 0:30
21 - Crucial Changes - 0:26

EAC-Log, CUE-Sheed & NFO:

Click to open spoiler
Exact Audio Copy V0.99 prebeta 5 from 4. May 2009

Отчёт EAC об извлечении, выполненном 26. июня 2010, 11:20

Agnostic Front / Victim in Pain [Bridge Nine]

Дисковод: HL-DT-STBD-RE GGW-H20L Adapter: 1 ID: 0

Режим чтения : Достоверность
Использование точного потока : Да
Отключение кэша аудио : Да
Использование указателей C2 : Нет

Коррекция смещения при чтении : 667
Способность читать области Lead-in и Lead-out : Нет
Заполнение пропущенных сэмплов тишиной : Да
Удаление блоков с тишиной в начале и конце : Нет
При вычислениях CRC использовались нулевые сэмплы : Да
Интерфейс : Встроенный Win32-интерфейс для Win NT/2000

Выходной формат : Пользовательский кодировщик
Выбранный битрейт : 768 kBit/s
Качество : Высокий
Добавление ID3-тэга : Нет
Утилита сжатия : C:\FLAC.EXE
Дополнительные параметры : -6 -V -T “ARTIST=%a” -T “TITLE=%t” -T “ALBUM=%g” -T “DATE=%y” -T “TRACKNUMBER=%n” -T “GENRE=%m” -T “COMMENT=%e” %s -o %d

TOC извлечённого CD

Трек | Старт | Длительность | Начальный сектор | Конечный сектор
———————————————————————
1 | 0:00.00 | 0:48.34 | 0 | 3633
2 | 0:48.34 | 1:04.37 | 3634 | 8470
3 | 1:52.71 | 1:26.18 | 8471 | 14938
4 | 3:19.14 | 0:46.52 | 14939 | 18440
5 | 4:05.66 | 1:09.30 | 18441 | 23645
6 | 5:15.21 | 1:44.43 | 23646 | 31488
7 | 6:59.64 | 1:20.70 | 31489 | 37558
8 | 8:20.59 | 2:04.00 | 37559 | 46858
9 | 10:24.59 | 1:12.52 | 46859 | 52310
10 | 11:37.36 | 1:34.30 | 52311 | 59390
11 | 13:11.66 | 2:15.38 | 59391 | 69553
12 | 15:27.29 | 0:24.60 | 69554 | 71413
13 | 15:52.14 | 0:22.02 | 71414 | 73065
14 | 16:14.16 | 0:47.45 | 73066 | 76635
15 | 17:01.61 | 0:24.70 | 76636 | 78505
16 | 17:26.56 | 1:15.65 | 78506 | 84195
17 | 18:42.46 | 1:12.48 | 84196 | 89643
18 | 19:55.19 | 0:15.15 | 89644 | 90783
19 | 20:10.34 | 0:42.10 | 90784 | 93943
20 | 20:52.44 | 0:30.05 | 93944 | 96198
21 | 21:22.49 | 0:26.19 | 96199 | 98167

Характеристики диапазона извлечения и сообщения об ошибках

Выбранный диапазон

Имя файла C:\Agnostic Front – Victim in Pain [Bridge Nine].wav

Пиковый уровень 99.8 %
Качество диапазона 100.0 %
CRC копии 1B698D1B
Копирование… OK

Ошибок не произошло

Конец отчёта

REM GENRE “HC North America”
REM DISCID F9051C15
REM COMMENT “ExactAudioCopy v0.99pb5”
PERFORMER “Agnostic Front”
TITLE “Victim in Pain [Bridge Nine]”
FILE “Agnostic Front – Victim in Pain [Bridge Nine].flac” WAVE
TRACK 01 AUDIO
TITLE “Victim in Pain”
PERFORMER “Agnostic Front”
INDEX 01 00:00:00
TRACK 02 AUDIO
TITLE “Remind Them”
PERFORMER “Agnostic Front”
INDEX 01 00:48:34
TRACK 03 AUDIO
TITLE “Blind Justice”
PERFORMER “Agnostic Front”
INDEX 01 01:52:71
TRACK 04 AUDIO
TITLE “Last Warning”
PERFORMER “Agnostic Front”
INDEX 01 03:19:14
TRACK 05 AUDIO
TITLE “United and Strong”
PERFORMER “Agnostic Front”
INDEX 01 04:05:66
TRACK 06 AUDIO
TITLE “Power”
PERFORMER “Agnostic Front”
INDEX 01 05:15:21
TRACK 07 AUDIO
TITLE “Hiding Inside”
PERFORMER “Agnostic Front”
INDEX 01 06:59:64
TRACK 08 AUDIO
TITLE “Fascist Attitudes”
PERFORMER “Agnostic Front”
INDEX 01 08:20:59
TRACK 09 AUDIO
TITLE “Society Suckers”
PERFORMER “Agnostic Front”
INDEX 01 10:24:59
TRACK 10 AUDIO
TITLE “Your Mistake”
PERFORMER “Agnostic Front”
INDEX 01 11:37:36
TRACK 11 AUDIO
TITLE “With Time”
PERFORMER “Agnostic Front”
INDEX 01 13:11:66
TRACK 12 AUDIO
TITLE “No One Rules”
PERFORMER “Agnostic Front”
INDEX 01 15:27:29
TRACK 13 AUDIO
TITLE “Final War”
PERFORMER “Agnostic Front”
INDEX 01 15:52:14
TRACK 14 AUDIO
TITLE “Last Warning”
PERFORMER “Agnostic Front”
INDEX 01 16:14:16
TRACK 15 AUDIO
TITLE “Traitor”
PERFORMER “Agnostic Front”
INDEX 01 17:01:61
TRACK 16 AUDIO
TITLE “Friend or Foe”
PERFORMER “Agnostic Front”
INDEX 01 17:26:56
TRACK 17 AUDIO
TITLE “United Blood”
PERFORMER “Agnostic Front”
INDEX 01 18:42:46
TRACK 18 AUDIO
TITLE “Fight”
PERFORMER “Agnostic Front”
INDEX 01 19:55:19
TRACK 19 AUDIO
TITLE “Discriminate Me”
PERFORMER “Agnostic Front”
INDEX 01 20:10:34
TRACK 20 AUDIO
TITLE “In Control”
PERFORMER “Agnostic Front”
INDEX 01 20:52:44
TRACK 21 AUDIO
TITLE “Crucial Changes”
PERFORMER “Agnostic Front”
INDEX 01 21:22:49


Leave a Reply

Your email address will not be published. Required fields are marked *

This site uses Akismet to reduce spam. Learn how your comment data is processed.