Agnostic Front – The Best Of…To Be Continued




Artist: Agnostic Front
Year: 1992
Genre: Hardcore
Notes: Discogs
Add. Notes:
Cover incl.: Yes
Encoder: FLAC
Bitrate: ~900 kBit/s (44.1 kHz/16 Bit/s)
Log & Cue incl.: Yes
Size: 261,17 MB
Password: “slam” (without ” “)


All Downloads/Hosters are compatible

Download 1
Turbobit.net
Rapidgator.net
UploadEver.com
KatFile.com
UsersDrive.com
Download 2
Turbobit.net
Rapidgator.net
UploadEver.com
KatFile.com
UsersDrive.com
Download 3
Turbobit.net
Rapidgator.net
UploadEver.com
KatFile.com
UsersDrive.com

Tracklist:

1 - Victim In Pain - 0:45
2 - Your Mistake - 1:26
3 - Hypocrisy - 2:48
4 - New Jack - 3:40
5 - Liberty & Justice - 2:56
6 - Time Will Come - 1:22
7 - Power - 1:42
8 - Society Sucker - 1:10
9 - Toxic Shock - 2:27
10 - Public Assistance - 2:44
11 - Blind Justice - 1:23
12 - The Eliminator - 3:10
13 - One Voice - 3:15
14 - Crucified - 2:28
15 - United And Strong - 1:07
16 - Your Mistake - 1:33
17 - Fascist Attitudes (Live) - 1:45
18 - Anthem (Live) - 2:39
19 - Last Warning (Live) - 0:51

EAC-Log, CUE-Sheed & NFO:

Click to open spoiler
Exact Audio Copy V0.99 prebeta 5 from 4. May 2009

Отчёт EAC об извлечении, выполненном 26. июня 2010, 0:42

Agnostic Front / To Be Continued

Дисковод: HL-DT-STBD-RE GGW-H20L Adapter: 1 ID: 0

Режим чтения : Достоверность
Использование точного потока : Да
Отключение кэша аудио : Да
Использование указателей C2 : Нет

Коррекция смещения при чтении : 667
Способность читать области Lead-in и Lead-out : Нет
Заполнение пропущенных сэмплов тишиной : Да
Удаление блоков с тишиной в начале и конце : Нет
При вычислениях CRC использовались нулевые сэмплы : Да
Интерфейс : Встроенный Win32-интерфейс для Win NT/2000

Выходной формат : Пользовательский кодировщик
Выбранный битрейт : 768 kBit/s
Качество : Высокий
Добавление ID3-тэга : Нет
Утилита сжатия : C:\FLAC\FLAC.EXE
Дополнительные параметры : -6 -V -T “ARTIST=%a” -T “TITLE=%t” -T “ALBUM=%g” -T “DATE=%y” -T “TRACKNUMBER=%n” -T “GENRE=%m” -T “COMMENT=%e” %s -o %d

TOC извлечённого CD

Трек | Старт | Длительность | Начальный сектор | Конечный сектор
———————————————————————
1 | 0:00.00 | 0:47.70 | 0 | 3594
2 | 0:47.70 | 1:27.55 | 3595 | 10174
3 | 2:15.50 | 2:48.45 | 10175 | 22819
4 | 5:04.20 | 3:40.68 | 22820 | 39387
5 | 8:45.13 | 2:57.55 | 39388 | 52717
6 | 11:42.68 | 1:26.52 | 52718 | 59219
7 | 13:09.45 | 1:43.30 | 59220 | 66974
8 | 14:53.00 | 1:11.73 | 66975 | 72372
9 | 16:04.73 | 2:27.57 | 72373 | 83454
10 | 18:32.55 | 2:46.65 | 83455 | 95969
11 | 21:19.45 | 1:24.40 | 95970 | 102309
12 | 22:44.10 | 3:12.35 | 102310 | 116744
13 | 25:56.45 | 3:16.13 | 116745 | 131457
14 | 29:12.58 | 2:28.47 | 131458 | 142604
15 | 31:41.30 | 1:08.40 | 142605 | 147744
16 | 32:49.70 | 1:33.40 | 147745 | 154759
17 | 34:23.35 | 1:44.65 | 154760 | 162624
18 | 36:08.25 | 2:38.50 | 162625 | 174524
19 | 38:47.00 | 0:42.40 | 174525 | 177714

Характеристики диапазона извлечения и сообщения об ошибках

Выбранный диапазон

Имя файла C:\Agnostic Front – To Be Continued.wav

Пиковый уровень 100.0 %
Качество диапазона 100.0 %
CRC копии 0C7EFA0F
Копирование… OK

Ошибок не произошло

Конец отчёта

REM GENRE Alternative
REM DATE 1992
REM DISCID 06094113
REM COMMENT “ExactAudioCopy v0.99pb5”
PERFORMER “Agnostic Front”
TITLE “To Be Continued”
FILE “Agnostic Front – To Be Continued.flac” WAVE
TRACK 01 AUDIO
TITLE “Victim In Pain”
PERFORMER “Agnostic Front”
INDEX 01 00:00:00
TRACK 02 AUDIO
TITLE “Your Mistake”
PERFORMER “Agnostic Front”
INDEX 01 00:47:70
TRACK 03 AUDIO
TITLE “Hypocrisy”
PERFORMER “Agnostic Front”
INDEX 01 02:15:50
TRACK 04 AUDIO
TITLE “New Jack”
PERFORMER “Agnostic Front”
INDEX 01 05:04:20
TRACK 05 AUDIO
TITLE “Liberty & Justice”
PERFORMER “Agnostic Front”
INDEX 01 08:45:13
TRACK 06 AUDIO
TITLE “Time Will Come”
PERFORMER “Agnostic Front”
INDEX 01 11:42:68
TRACK 07 AUDIO
TITLE “Power”
PERFORMER “Agnostic Front”
INDEX 01 13:09:45
TRACK 08 AUDIO
TITLE “Society Sucker”
PERFORMER “Agnostic Front”
INDEX 01 14:53:00
TRACK 09 AUDIO
TITLE “Toxic Shock”
PERFORMER “Agnostic Front”
INDEX 01 16:04:73
TRACK 10 AUDIO
TITLE “Public Assistance”
PERFORMER “Agnostic Front”
INDEX 01 18:32:55
TRACK 11 AUDIO
TITLE “Blind Justice”
PERFORMER “Agnostic Front”
INDEX 01 21:19:45
TRACK 12 AUDIO
TITLE “The Eliminator”
PERFORMER “Agnostic Front”
INDEX 01 22:44:10
TRACK 13 AUDIO
TITLE “One Voice”
PERFORMER “Agnostic Front”
INDEX 01 25:56:45
TRACK 14 AUDIO
TITLE “Crucified”
PERFORMER “Agnostic Front”
INDEX 01 29:12:58
TRACK 15 AUDIO
TITLE “United And Strong”
PERFORMER “Agnostic Front”
INDEX 01 31:41:30
TRACK 16 AUDIO
TITLE “Your Mistake”
PERFORMER “Agnostic Front”
INDEX 01 32:49:70
TRACK 17 AUDIO
TITLE “Fascist Attitudes (Live)”
PERFORMER “Agnostic Front”
INDEX 01 34:23:35
TRACK 18 AUDIO
TITLE “Anthem (Live)”
PERFORMER “Agnostic Front”
INDEX 01 36:08:25
TRACK 19 AUDIO
TITLE “Last Warning (Live)”
PERFORMER “Agnostic Front”
INDEX 01 38:47:00

Leave a Reply

Your email address will not be published. Required fields are marked *

This site uses Akismet to reduce spam. Learn how your comment data is processed.