Agnostic Front – Something’s Gotta Give




Artist: Agnostic Front
Year: 1998
Genre: Hardcore
Notes: Discogs
Add. Notes:
Cover incl.: Yes
Encoder: FLAC
Bitrate: ~1100 kBit/s (44.1 kHz/16 Bit/s)
Log & Cue incl.: Yes
Size: 308,21 MB
Password: “slam” (without ” “)


All Downloads/Hosters are compatible

Download 1
Turbobit.net
Rapidgator.net
UploadEver.com
KatFile.com
UsersDrive.com
Download 2
Turbobit.net
Rapidgator.net
UploadEver.com
KatFile.com
UsersDrive.com
Download 3
Turbobit.net
Rapidgator.net
UploadEver.com
KatFile.com
UsersDrive.com

Tracklist:

1 - Something's Gotta Give - 1:52
2 - Believe - 1:38
3 - Gotta Go - 3:35
4 - Before My Eyes - 2:10
5 - No Fear - 2:01
6 - Blinded - 2:42
7 - Voices - 2:16
8 - Do Or Die - 2:12
9 - My War - 2:14
10 - Bloodsucker - 1:41
11 - The Blame - 2:12
12 - Today, Tomorrow, Forever - 2:28
13 - Rage - 1:23
14 - Pauly The Dog - 0:48
15 - Crucified - 3:27
16 - Voices (Spanish Version) - 2:14
17 - Gotta Go (Spanish Version) - 3:36
18 - Believe (Spanish Version) - 1:37

EAC-Log, CUE-Sheed & NFO:

Click to open spoiler
Exact Audio Copy V0.99 prebeta 5 from 4. May 2009

Отчёт EAC об извлечении, выполненном 26. июня 2010, 11:49

Agnostic Front / Something’s Gotta Give

Дисковод: HL-DT-STBD-RE GGW-H20L Adapter: 1 ID: 0

Режим чтения : Достоверность
Использование точного потока : Да
Отключение кэша аудио : Да
Использование указателей C2 : Нет

Коррекция смещения при чтении : 667
Способность читать области Lead-in и Lead-out : Нет
Заполнение пропущенных сэмплов тишиной : Да
Удаление блоков с тишиной в начале и конце : Нет
При вычислениях CRC использовались нулевые сэмплы : Да
Интерфейс : Встроенный Win32-интерфейс для Win NT/2000

Выходной формат : Пользовательский кодировщик
Выбранный битрейт : 768 kBit/s
Качество : Высокий
Добавление ID3-тэга : Нет
Утилита сжатия : C:\FLAC.EXE
Дополнительные параметры : -6 -V -T “ARTIST=%a” -T “TITLE=%t” -T “ALBUM=%g” -T “DATE=%y” -T “TRACKNUMBER=%n” -T “GENRE=%m” -T “COMMENT=%e” %s -o %d

TOC извлечённого CD

Трек | Старт | Длительность | Начальный сектор | Конечный сектор
———————————————————————
1 | 0:00.00 | 1:52.20 | 0 | 8419
2 | 1:52.20 | 1:38.47 | 8420 | 15816
3 | 3:30.67 | 3:35.30 | 15817 | 31971
4 | 7:06.22 | 2:10.55 | 31972 | 41776
5 | 9:17.02 | 2:01.73 | 41777 | 50924
6 | 11:19.00 | 2:42.62 | 50925 | 63136
7 | 14:01.62 | 2:16.38 | 63137 | 73374
8 | 16:18.25 | 2:12.15 | 73375 | 83289
9 | 18:30.40 | 2:14.17 | 83290 | 93356
10 | 20:44.57 | 1:41.28 | 93357 | 100959
11 | 22:26.10 | 2:12.05 | 100960 | 110864
12 | 24:38.15 | 2:28.00 | 110865 | 121964
13 | 27:06.15 | 1:32.12 | 121965 | 128876
14 | 28:38.27 | 0:48.35 | 128877 | 132511
15 | 29:26.62 | 3:27.38 | 132512 | 148074
16 | 32:54.25 | 2:14.57 | 148075 | 158181
17 | 35:09.07 | 3:36.35 | 158182 | 174416
18 | 38:45.42 | 1:37.60 | 174417 | 181751

Характеристики диапазона извлечения и сообщения об ошибках

Выбранный диапазон

Имя файла C:\Agnostic Front – Something’s Gotta Give.wav

Пиковый уровень 99.9 %
Качество диапазона 100.0 %
CRC копии 4E5FE32B
Копирование… OK

Ошибок не произошло

Конец отчёта

REM GENRE Hardcore
REM DATE 1998
REM DISCID E7097712
REM COMMENT “ExactAudioCopy v0.99pb5”
PERFORMER “Agnostic Front”
TITLE “Something’s Gotta Give”
FILE “Agnostic Front – Something’s Gotta Give.flac” WAVE
TRACK 01 AUDIO
TITLE “Something’s Gotta Give”
PERFORMER “Agnostic Front”
INDEX 01 00:00:00
TRACK 02 AUDIO
TITLE “Believe”
PERFORMER “Agnostic Front”
INDEX 00 01:51:05
INDEX 01 01:52:20
TRACK 03 AUDIO
TITLE “Gotta Go”
PERFORMER “Agnostic Front”
INDEX 00 03:29:57
INDEX 01 03:30:67
TRACK 04 AUDIO
TITLE “Before My Eyes”
PERFORMER “Agnostic Front”
INDEX 00 07:05:45
INDEX 01 07:06:22
TRACK 05 AUDIO
TITLE “No Fear”
PERFORMER “Agnostic Front”
INDEX 00 09:15:55
INDEX 01 09:17:02
TRACK 06 AUDIO
TITLE “Blinded”
PERFORMER “Agnostic Front”
INDEX 00 11:17:37
INDEX 01 11:19:00
TRACK 07 AUDIO
TITLE “Voices”
PERFORMER “Agnostic Front”
INDEX 00 13:59:50
INDEX 01 14:01:62
TRACK 08 AUDIO
TITLE “Do Or Die”
PERFORMER “Agnostic Front”
INDEX 00 16:16:50
INDEX 01 16:18:25
TRACK 09 AUDIO
TITLE “My War”
PERFORMER “Agnostic Front”
INDEX 00 18:28:50
INDEX 01 18:30:40
TRACK 10 AUDIO
TITLE “Bloodsucker”
PERFORMER “Agnostic Front”
INDEX 00 20:42:60
INDEX 01 20:44:57
TRACK 11 AUDIO
TITLE “The Blame”
PERFORMER “Agnostic Front”
INDEX 00 22:25:37
INDEX 01 22:26:10
TRACK 12 AUDIO
TITLE “Today, Tomorrow, Forever”
PERFORMER “Agnostic Front”
INDEX 00 24:36:02
INDEX 01 24:38:15
TRACK 13 AUDIO
TITLE “Rage”
PERFORMER “Agnostic Front”
INDEX 00 27:04:67
INDEX 01 27:06:15
TRACK 14 AUDIO
TITLE “Pauly The Dog”
PERFORMER “Agnostic Front”
INDEX 00 28:37:12
INDEX 01 28:38:27
TRACK 15 AUDIO
TITLE “Crucified”
PERFORMER “Agnostic Front”
INDEX 01 29:26:62
TRACK 16 AUDIO
TITLE “Voices (Spanish Version)”
PERFORMER “Agnostic Front”
INDEX 00 32:52:55
INDEX 01 32:54:25
TRACK 17 AUDIO
TITLE “Gotta Go (Spanish Version)”
PERFORMER “Agnostic Front”
INDEX 00 35:07:17
INDEX 01 35:09:07
TRACK 18 AUDIO
TITLE “Believe (Spanish Version)”
PERFORMER “Agnostic Front”
INDEX 00 38:43:72
INDEX 01 38:45:42


Leave a Reply

Your email address will not be published. Required fields are marked *

This site uses Akismet to reduce spam. Learn how your comment data is processed.