Agnostic Front – Riot Riot Upstart




Artist: Agnostic Front
Year: 1999
Genre: Hardcore
Notes: Discogs
Add. Notes:
Cover incl.: Yes
Encoder: FLAC
Bitrate: ~1000 kBit/s (44.1 kHz/16 Bit/s)
Log & Cue incl.: Yes
Size: 206,89 MB
Password: “slam” (without ” “)


All Downloads/Hosters are compatible

Download 1
Turbobit.net
Rapidgator.net
UploadEver.com
KatFile.com
UsersDrive.com
Download 2
Turbobit.net
Rapidgator.net
UploadEver.com
KatFile.com
UsersDrive.com
Download 3
Turbobit.net
Rapidgator.net
UploadEver.com
KatFile.com
UsersDrive.com

Tracklist:

1 - Police State - 1:03
2 - I Had Enough - 1:37
3 - Riot, Riot, Upstart - 2:12
4 - Sit And Watch - 1:51
5 - Blood, Death And Taxes - 1:22
6 - Frustation - 1:19
7 - Sickness - 1:32
8 - Shadows - 1:40
9 - Nowhere To Go - 2:25
10 - Trust - 2:11
11 - My Life - 2:16
12 - It's Time - 1:29
13 - Rock Star - 1:34
14 - Nothing's Free - 1:45
15 - Price You Pay - 0:55
16 - Jailbreak - 1:36
17 - Bullet On Mott St. - 2:04

EAC-Log, CUE-Sheed & NFO:

Click to open spoiler
Exact Audio Copy V0.99 prebeta 5 from 4. May 2009

Отчёт EAC об извлечении, выполненном 25. июня 2010, 19:58

Agnostic Front / Riot Riot Upstart

Дисковод: HL-DT-STBD-RE GGW-H20L Adapter: 1 ID: 0

Режим чтения : Достоверность
Использование точного потока : Да
Отключение кэша аудио : Да
Использование указателей C2 : Нет

Коррекция смещения при чтении : 667
Способность читать области Lead-in и Lead-out : Нет
Заполнение пропущенных сэмплов тишиной : Да
Удаление блоков с тишиной в начале и конце : Нет
При вычислениях CRC использовались нулевые сэмплы : Да
Интерфейс : Встроенный Win32-интерфейс для Win NT/2000

Выходной формат : Пользовательский кодировщик
Выбранный битрейт : 768 kBit/s
Качество : Высокий
Добавление ID3-тэга : Нет
Утилита сжатия : C:\FLAC\FLAC.EXE
Дополнительные параметры : -6 -V -T “ARTIST=%a” -T “TITLE=%t” -T “ALBUM=%g” -T “DATE=%y” -T “TRACKNUMBER=%n” -T “GENRE=%m” -T “COMMENT=%e” %s -o %d

TOC извлечённого CD

Трек | Старт | Длительность | Начальный сектор | Конечный сектор
———————————————————————
1 | 0:00.00 | 1:03.50 | 0 | 4774
2 | 1:03.50 | 1:37.67 | 4775 | 12116
3 | 2:41.42 | 2:12.17 | 12117 | 22033
4 | 4:53.59 | 1:51.53 | 22034 | 30411
5 | 6:45.37 | 1:22.60 | 30412 | 36621
6 | 8:08.22 | 1:19.27 | 36622 | 42573
7 | 9:27.49 | 1:32.13 | 42574 | 49486
8 | 10:59.62 | 1:40.71 | 49487 | 57057
9 | 12:40.58 | 2:25.73 | 57058 | 68005
10 | 15:06.56 | 2:11.05 | 68006 | 77835
11 | 17:17.61 | 2:16.62 | 77836 | 88097
12 | 19:34.48 | 1:29.38 | 88098 | 94810
13 | 21:04.11 | 1:34.51 | 94811 | 101911
14 | 22:38.62 | 1:45.28 | 101912 | 109814
15 | 24:24.15 | 0:55.09 | 109815 | 113948
16 | 25:19.24 | 1:36.23 | 113949 | 121171
17 | 26:55.47 | 2:04.17 | 121172 | 130488

Характеристики диапазона извлечения и сообщения об ошибках

Выбранный диапазон

Имя файла C:\Agnostic Front – Riot Riot Upstart.wav

Пиковый уровень 99.3 %
Качество диапазона 100.0 %
CRC копии FF74EE4A
Копирование… OK

Ошибок не произошло

Конец отчёта

REM GENRE Metal
REM DATE 1999
REM DISCID DE06CB11
REM COMMENT “ExactAudioCopy v0.99pb5”
PERFORMER “Agnostic Front”
TITLE “Riot Riot Upstart”
FILE “Agnostic Front – Riot Riot Upstart.flac” WAVE
TRACK 01 AUDIO
TITLE “Police State”
PERFORMER “Agnostic Front”
INDEX 01 00:00:00
TRACK 02 AUDIO
TITLE “I Had Enough”
PERFORMER “Agnostic Front”
INDEX 01 01:03:50
TRACK 03 AUDIO
TITLE “Riot Riot Upstart”
PERFORMER “Agnostic Front”
INDEX 01 02:41:42
TRACK 04 AUDIO
TITLE “Sit and Watch”
PERFORMER “Agnostic Front”
INDEX 01 04:53:59
TRACK 05 AUDIO
TITLE “Blood, Death and Taxes”
PERFORMER “Agnostic Front”
INDEX 01 06:45:37
TRACK 06 AUDIO
TITLE “Frustration”
PERFORMER “Agnostic Front”
INDEX 01 08:08:22
TRACK 07 AUDIO
TITLE “Sickness”
PERFORMER “Agnostic Front”
INDEX 01 09:27:49
TRACK 08 AUDIO
TITLE “Shadows”
PERFORMER “Agnostic Front”
INDEX 01 10:59:62
TRACK 09 AUDIO
TITLE “Nowhere To Go”
PERFORMER “Agnostic Front”
INDEX 01 12:40:58
TRACK 10 AUDIO
TITLE “Trust”
PERFORMER “Agnostic Front”
INDEX 01 15:06:56
TRACK 11 AUDIO
TITLE “My Life”
PERFORMER “Agnostic Front”
INDEX 01 17:17:61
TRACK 12 AUDIO
TITLE “It’s Time”
PERFORMER “Agnostic Front”
INDEX 01 19:34:48
TRACK 13 AUDIO
TITLE “Rock Star”
PERFORMER “Agnostic Front”
INDEX 01 21:04:11
TRACK 14 AUDIO
TITLE “Nothing’s Free”
PERFORMER “Agnostic Front”
INDEX 01 22:38:62
TRACK 15 AUDIO
TITLE “Price You Pay”
PERFORMER “Agnostic Front”
INDEX 01 24:24:15
TRACK 16 AUDIO
TITLE “Jailbreak”
PERFORMER “Agnostic Front”
INDEX 01 25:19:24
TRACK 17 AUDIO
TITLE “Bullet On Mott St.”
PERFORMER “Agnostic Front”
INDEX 01 26:55:47


Leave a Reply

Your email address will not be published. Required fields are marked *

This site uses Akismet to reduce spam. Learn how your comment data is processed.