Agnostic Front – Raw Unleashed




Artist: Agnostic Front
Year: 1995
Genre: Hardcore
Notes: Discogs
Add. Notes:
Cover incl.: Yes
Encoder: FLAC
Bitrate: ~700 kBit/s (44.1 kHz/16 Bit/s)
Log & Cue incl.: Yes
Size: 311,28 MB
Password: “slam” (without ” “)


All Downloads/Hosters are compatible

Download 1
Turbobit.net
Rapidgator.net
KatFile.com
UploadRar.com
Download 2
Turbobit.net
Rapidgator.net
KatFile.com
UploadRar.com

Tracklist:

Extended United Blood Recording (Pre Mixdown)
1 - Smell The Bacon / What's With You - 0:37
2 - In Control - 0:31
3 - Last Warning - 0:49
4 - Fuck All Authority - 0:31
5 - Fight - 0:16
6 - Final War - 0:24
7 - Discriminate Me - 0:43
8 - United Blood - 1:14
9 - No Rights (No One Rules) - 0:26
10 - Friend Or Foe - 1:16
11 - We Shoud Care - 1:08
12 - Crucial Changes - 0:26
13 - Traitor - 0:26
14 - United Blood - 1:13
15 - Discriminate Me - 0:43
16 - We Should Care - 1:07
Pre-United Blood Recording
17 - Smell The Bacon / What's With You - 0:39
18 - In Control - 0:31
19 - Last Warning - 0:52
20 - Fuck All Authority - 0:35
21 - Fight - 0:24
22 - Get Out / Final War - 1:30
23 - Discriminate Me - 0:42
24 - United Blood - 1:15
25 - Society Suckers - 1:12
26 - No Rights (No One Rules) - 0:27
27 - Friend Or Foe - 1:11
28 - We Should Care - 1:12
29 - Blind Justice - 0:47
30 - Crucial Changes - 0:28
31 - Traitor - 0:27
32 - Skins Go Marching In / We Can Do Anything - 1:33
33 - It's My Life - 1:07
1984 Rehearsal, Don Fury's Studio
34 - Blind Justice - 1:34
35 - Your Mistake - 1:36
36 - Friend Or Foe - 1:13
37 - No One Rules - 0:25
38 - Fight - 0:29
39 - Last Warning - 0:46
40 - United And Strong - 1:14
41 - Hiding Inside - 1:31
42 - Discriminate Me - 0:41
43 - With Time - 2:04
44 - Traitor - 1:26
45 - Victim In Pain - 1:13
46 - Power - 1:34
47 - United Blood - 1:23
48 - Time Will Come - 1:54
49 - Society Suckers - 1:19
50 - The Blame - 2:23
United Blood 7" Two-Track Mixdown
51 - No One Rules - 0:24
52 - Final War - 0:22
53 - Last Warning - 0:47
54 - Traitor - 0:24
55 - Friend Or Foe - 1:15
56 - United Blood - 1:12
57 - Fight - 0:15
58 - Discriminate Me - 0:42
59 - In Control - 0:30
60 - Crucial Changes - 0:26
Message From The Underground Comp. (Urinal Records)
61 - United Blood - 1:44
62 - Time Will Come - 1:38

EAC-Log, CUE-Sheed & NFO:

Click to open spoiler
Exact Audio Copy V0.99 prebeta 5 from 4. May 2009

Отчёт EAC об извлечении, выполненном 25. июня 2010, 23:13

Agnostic Front / Raw Unleashed

Дисковод: HL-DT-STBD-RE GGW-H20L Adapter: 1 ID: 0

Режим чтения : Достоверность
Использование точного потока : Да
Отключение кэша аудио : Да
Использование указателей C2 : Нет

Коррекция смещения при чтении : 667
Способность читать области Lead-in и Lead-out : Нет
Заполнение пропущенных сэмплов тишиной : Да
Удаление блоков с тишиной в начале и конце : Нет
При вычислениях CRC использовались нулевые сэмплы : Да
Интерфейс : Встроенный Win32-интерфейс для Win NT/2000

Выходной формат : Пользовательский кодировщик
Выбранный битрейт : 768 kBit/s
Качество : Высокий
Добавление ID3-тэга : Нет
Утилита сжатия : C:\FLAC\FLAC.EXE
Дополнительные параметры : -6 -V -T “ARTIST=%a” -T “TITLE=%t” -T “ALBUM=%g” -T “DATE=%y” -T “TRACKNUMBER=%n” -T “GENRE=%m” -T “COMMENT=%e” %s -o %d

TOC извлечённого CD

Трек | Старт | Длительность | Начальный сектор | Конечный сектор
———————————————————————
1 | 0:00.00 | 0:37.40 | 0 | 2814
2 | 0:37.40 | 0:31.02 | 2815 | 5141
3 | 1:08.42 | 0:49.55 | 5142 | 8871
4 | 1:58.22 | 0:31.18 | 8872 | 11214
5 | 2:29.40 | 0:16.07 | 11215 | 12421
6 | 2:45.47 | 0:24.00 | 12422 | 14221
7 | 3:09.47 | 0:43.35 | 14222 | 17481
8 | 3:53.07 | 1:14.58 | 17482 | 23089
9 | 5:07.65 | 0:26.45 | 23090 | 25084
10 | 5:34.35 | 1:16.25 | 25085 | 30809
11 | 6:50.60 | 1:08.02 | 30810 | 35911
12 | 7:58.62 | 0:26.03 | 35912 | 37864
13 | 8:24.65 | 0:26.57 | 37865 | 39871
14 | 8:51.47 | 1:13.73 | 39872 | 45419
15 | 10:05.45 | 0:43.10 | 45420 | 48654
16 | 10:48.55 | 1:07.45 | 48655 | 53724
17 | 11:56.25 | 0:39.50 | 53725 | 56699
18 | 12:36.00 | 0:31.47 | 56700 | 59071
19 | 13:07.47 | 0:52.70 | 59072 | 63041
20 | 14:00.42 | 0:35.70 | 63042 | 65736
21 | 14:36.37 | 0:24.50 | 65737 | 67586
22 | 15:01.12 | 1:30.18 | 67587 | 74354
23 | 16:31.30 | 0:42.55 | 74355 | 77559
24 | 17:14.10 | 1:15.32 | 77560 | 83216
25 | 18:29.42 | 1:12.40 | 83217 | 88656
26 | 19:42.07 | 0:27.30 | 88657 | 90711
27 | 20:09.37 | 1:11.10 | 90712 | 96046
28 | 21:20.47 | 1:12.35 | 96047 | 101481
29 | 22:33.07 | 0:47.38 | 101482 | 105044
30 | 23:20.45 | 0:28.27 | 105045 | 107171
31 | 23:48.72 | 0:27.08 | 107172 | 109204
32 | 24:16.05 | 1:33.35 | 109205 | 116214
33 | 25:49.40 | 1:07.12 | 116215 | 121251
34 | 26:56.52 | 1:34.40 | 121252 | 128341
35 | 28:31.17 | 1:36.00 | 128342 | 135541
36 | 30:07.17 | 1:13.18 | 135542 | 141034
37 | 31:20.35 | 0:25.00 | 141035 | 142909
38 | 31:45.35 | 0:29.07 | 142910 | 145091
39 | 32:14.42 | 0:46.50 | 145092 | 148591
40 | 33:01.17 | 1:14.63 | 148592 | 154204
41 | 34:16.05 | 1:31.62 | 154205 | 161091
42 | 35:47.67 | 0:41.58 | 161092 | 164224
43 | 36:29.50 | 2:04.55 | 164225 | 173579
44 | 38:34.30 | 1:26.35 | 173580 | 180064
45 | 40:00.65 | 1:13.57 | 180065 | 185596
46 | 41:14.47 | 1:34.18 | 185597 | 192664
47 | 42:48.65 | 1:23.45 | 192665 | 198934
48 | 44:12.35 | 1:54.42 | 198935 | 207526
49 | 46:07.02 | 1:19.30 | 207527 | 213481
50 | 47:26.32 | 2:23.28 | 213482 | 224234
51 | 49:49.60 | 0:24.60 | 224235 | 226094
52 | 50:14.45 | 0:22.02 | 226095 | 227746
53 | 50:36.47 | 0:47.45 | 227747 | 231316
54 | 51:24.17 | 0:24.70 | 231317 | 233186
55 | 51:49.12 | 1:15.65 | 233187 | 238876
56 | 53:05.02 | 1:12.48 | 238877 | 244324
57 | 54:17.50 | 0:15.15 | 244325 | 245464
58 | 54:32.65 | 0:42.10 | 245465 | 248624
59 | 55:15.00 | 0:30.05 | 248625 | 250879
60 | 55:45.05 | 0:26.32 | 250880 | 252861
61 | 56:11.37 | 1:44.10 | 252862 | 260671
62 | 57:55.47 | 1:38.60 | 260672 | 268081

Характеристики диапазона извлечения и сообщения об ошибках

Выбранный диапазон

Имя файла C:\Agnostic Front – Raw Unleashed.wav

Пиковый уровень 100.0 %
Качество диапазона 100.0 %
CRC копии 6E57EA82
Копирование… OK

Ошибок не произошло

Конец отчёта

REM GENRE Punk
REM DATE 1995
REM DISCID 610DF63E
REM COMMENT “ExactAudioCopy v0.99pb5”
PERFORMER “Agnostic Front”
TITLE “Raw Unleashed”
FILE “Agnostic Front – Raw Unleashed.flac” WAVE
TRACK 01 AUDIO
TITLE “Smell the Bacon/What’s With You”
PERFORMER “Agnostic Front”
INDEX 01 00:00:00
TRACK 02 AUDIO
TITLE “In Control”
PERFORMER “Agnostic Front”
INDEX 01 00:37:40
TRACK 03 AUDIO
TITLE “Last Warning”
PERFORMER “Agnostic Front”
INDEX 01 01:08:42
TRACK 04 AUDIO
TITLE “Fuck All Authority”
PERFORMER “Agnostic Front”
INDEX 01 01:58:22
TRACK 05 AUDIO
TITLE “Fight”
PERFORMER “Agnostic Front”
INDEX 01 02:29:40
TRACK 06 AUDIO
TITLE “Final War”
PERFORMER “Agnostic Front”
INDEX 01 02:45:47
TRACK 07 AUDIO
TITLE “Discriminate Me”
PERFORMER “Agnostic Front”
INDEX 01 03:09:47
TRACK 08 AUDIO
TITLE “United Blood”
PERFORMER “Agnostic Front”
INDEX 01 03:53:07
TRACK 09 AUDIO
TITLE “No Rights (No One Rules)”
PERFORMER “Agnostic Front”
INDEX 01 05:07:65
TRACK 10 AUDIO
TITLE “Friend or Foe”
PERFORMER “Agnostic Front”
INDEX 01 05:34:35
TRACK 11 AUDIO
TITLE “We Should Care”
PERFORMER “Agnostic Front”
INDEX 01 06:50:60
TRACK 12 AUDIO
TITLE “Crucial Changes”
PERFORMER “Agnostic Front”
INDEX 01 07:58:62
TRACK 13 AUDIO
TITLE “Traitor”
PERFORMER “Agnostic Front”
INDEX 01 08:24:65
TRACK 14 AUDIO
TITLE “United Blood”
PERFORMER “Agnostic Front”
INDEX 01 08:51:47
TRACK 15 AUDIO
TITLE “Discriminate Me”
PERFORMER “Agnostic Front”
INDEX 01 10:05:45
TRACK 16 AUDIO
TITLE “We Should Care”
PERFORMER “Agnostic Front”
INDEX 01 10:48:55
TRACK 17 AUDIO
TITLE “Smell the Bacon/What’s With You”
PERFORMER “Agnostic Front”
INDEX 01 11:56:25
TRACK 18 AUDIO
TITLE “In Control”
PERFORMER “Agnostic Front”
INDEX 01 12:36:00
TRACK 19 AUDIO
TITLE “Last Warning”
PERFORMER “Agnostic Front”
INDEX 01 13:07:47
TRACK 20 AUDIO
TITLE “Fuck All Authority”
PERFORMER “Agnostic Front”
INDEX 01 14:00:42
TRACK 21 AUDIO
TITLE “Fight”
PERFORMER “Agnostic Front”
INDEX 01 14:36:37
TRACK 22 AUDIO
TITLE “Get Out/Final War”
PERFORMER “Agnostic Front”
INDEX 01 15:01:12
TRACK 23 AUDIO
TITLE “Discriminate Me”
PERFORMER “Agnostic Front”
INDEX 01 16:31:30
TRACK 24 AUDIO
TITLE “United Blood”
PERFORMER “Agnostic Front”
INDEX 01 17:14:10
TRACK 25 AUDIO
TITLE “Society Suckers”
PERFORMER “Agnostic Front”
INDEX 01 18:29:42
TRACK 26 AUDIO
TITLE “No Rights (No One Rules)”
PERFORMER “Agnostic Front”
INDEX 01 19:42:07
TRACK 27 AUDIO
TITLE “Friend or Foe”
PERFORMER “Agnostic Front”
INDEX 01 20:09:37
TRACK 28 AUDIO
TITLE “We Should Care”
PERFORMER “Agnostic Front”
INDEX 01 21:20:47
TRACK 29 AUDIO
TITLE “Blind Justice”
PERFORMER “Agnostic Front”
INDEX 01 22:33:07
TRACK 30 AUDIO
TITLE “Crucial Changes”
PERFORMER “Agnostic Front”
INDEX 01 23:20:45
TRACK 31 AUDIO
TITLE “Traitor”
PERFORMER “Agnostic Front”
INDEX 01 23:48:72
TRACK 32 AUDIO
TITLE “Skins Go Marching In/We Can Do Anything”
PERFORMER “Agnostic Front”
INDEX 01 24:16:05
TRACK 33 AUDIO
TITLE “It’s My Life”
PERFORMER “Agnostic Front”
INDEX 01 25:49:40
TRACK 34 AUDIO
TITLE “Blind Justice”
PERFORMER “Agnostic Front”
INDEX 01 26:56:52
TRACK 35 AUDIO
TITLE “Your Mistake”
PERFORMER “Agnostic Front”
INDEX 01 28:31:17
TRACK 36 AUDIO
TITLE “Friend or Foe”
PERFORMER “Agnostic Front”
INDEX 01 30:07:17
TRACK 37 AUDIO
TITLE “No One Rules”
PERFORMER “Agnostic Front”
INDEX 01 31:20:35
TRACK 38 AUDIO
TITLE “Fight”
PERFORMER “Agnostic Front”
INDEX 01 31:45:35
TRACK 39 AUDIO
TITLE “Last Warning”
PERFORMER “Agnostic Front”
INDEX 01 32:14:42
TRACK 40 AUDIO
TITLE “United and Strong”
PERFORMER “Agnostic Front”
INDEX 01 33:01:17
TRACK 41 AUDIO
TITLE “Hiding Inside”
PERFORMER “Agnostic Front”
INDEX 01 34:16:05
TRACK 42 AUDIO
TITLE “Discriminate Me”
PERFORMER “Agnostic Front”
INDEX 01 35:47:67
TRACK 43 AUDIO
TITLE “With Time”
PERFORMER “Agnostic Front”
INDEX 01 36:29:50
TRACK 44 AUDIO
TITLE “Traitor”
PERFORMER “Agnostic Front”
INDEX 01 38:34:30
TRACK 45 AUDIO
TITLE “Victim in Pain”
PERFORMER “Agnostic Front”
INDEX 01 40:00:65
TRACK 46 AUDIO
TITLE “Power”
PERFORMER “Agnostic Front”
INDEX 01 41:14:47
TRACK 47 AUDIO
TITLE “United Blood”
PERFORMER “Agnostic Front”
INDEX 01 42:48:65
TRACK 48 AUDIO
TITLE “Time Will Come”
PERFORMER “Agnostic Front”
INDEX 01 44:12:35
TRACK 49 AUDIO
TITLE “Society Suckers”
PERFORMER “Agnostic Front”
INDEX 01 46:07:02
TRACK 50 AUDIO
TITLE “The Blame”
PERFORMER “Agnostic Front”
INDEX 01 47:26:32
TRACK 51 AUDIO
TITLE “No One Rules”
PERFORMER “Agnostic Front”
INDEX 01 49:49:60
TRACK 52 AUDIO
TITLE “Final War”
PERFORMER “Agnostic Front”
INDEX 01 50:14:45
TRACK 53 AUDIO
TITLE “Last Warning”
PERFORMER “Agnostic Front”
INDEX 01 50:36:47
TRACK 54 AUDIO
TITLE “Traitor”
PERFORMER “Agnostic Front”
INDEX 01 51:24:17
TRACK 55 AUDIO
TITLE “Friend or Foe”
PERFORMER “Agnostic Front”
INDEX 01 51:49:12
TRACK 56 AUDIO
TITLE “United Blood”
PERFORMER “Agnostic Front”
INDEX 01 53:05:02
TRACK 57 AUDIO
TITLE “Fight”
PERFORMER “Agnostic Front”
INDEX 01 54:17:50
TRACK 58 AUDIO
TITLE “Discriminate Me”
PERFORMER “Agnostic Front”
INDEX 01 54:32:65
TRACK 59 AUDIO
TITLE “In Control”
PERFORMER “Agnostic Front”
INDEX 01 55:15:00
TRACK 60 AUDIO
TITLE “Crucial Changes”
PERFORMER “Agnostic Front”
INDEX 01 55:45:05
TRACK 61 AUDIO
TITLE “United Blood”
PERFORMER “Agnostic Front”
INDEX 01 56:11:37
TRACK 62 AUDIO
TITLE “Time Will Come”
PERFORMER “Agnostic Front”
INDEX 01 57:55:47


Leave a Reply

Your email address will not be published. Required fields are marked *

This site uses Akismet to reduce spam. Learn how your comment data is processed.