Agnostic Front – One Voice




Artist: Agnostic Front
Year: 1992
Genre: Hardcore
Notes: Discogs
Add. Notes:
Cover incl.: Yes
Encoder: FLAC
Bitrate: ~900 kBit/s (44.1 kHz/16 Bit/s)
Log & Cue incl.: Yes
Size: 229,4 MB
Password: “slam” (without ” “)


All Downloads/Hosters are compatible

Download 1
Turbobit.net
Rapidgator.net
KatFile.com
UploadRar.com
Download 2
Turbobit.net
Rapidgator.net
KatFile.com
UploadRar.com

Tracklist:

1 - New Jack - 3:40
2 - One Voice - 3:16
3 - Infiltrate - 1:20
4 - The Tombs - 3:24
5 - Your Fall - 1:48
6 - Over The Edge - 3:55
7 - Undertow - 3:37
8 - Now & Then - 2:25
9 - Crime Without Sin - 2:42
10 - Retaliate - 3:21
11 - Force Feed - 2:49
12 - Bastard - 3:08

EAC-Log, CUE-Sheed & NFO:

Click to open spoiler
Exact Audio Copy V0.99 prebeta 5 from 4. May 2009

Отчёт EAC об извлечении, выполненном 26. июня 2010, 10:19

Agnostic Front / One Voice

Дисковод: HL-DT-STBD-RE GGW-H20L Adapter: 1 ID: 0

Режим чтения : Достоверность
Использование точного потока : Да
Отключение кэша аудио : Да
Использование указателей C2 : Нет

Коррекция смещения при чтении : 667
Способность читать области Lead-in и Lead-out : Нет
Заполнение пропущенных сэмплов тишиной : Да
Удаление блоков с тишиной в начале и конце : Нет
При вычислениях CRC использовались нулевые сэмплы : Да
Интерфейс : Встроенный Win32-интерфейс для Win NT/2000

Выходной формат : Пользовательский кодировщик
Выбранный битрейт : 768 kBit/s
Качество : Высокий
Добавление ID3-тэга : Нет
Утилита сжатия : C:\FLAC\FLAC.EXE
Дополнительные параметры : -6 -V -T “ARTIST=%a” -T “TITLE=%t” -T “ALBUM=%g” -T “DATE=%y” -T “TRACKNUMBER=%n” -T “GENRE=%m” -T “COMMENT=%e” %s -o %d

TOC извлечённого CD

Трек | Старт | Длительность | Начальный сектор | Конечный сектор
———————————————————————
1 | 0:00.00 | 3:40.36 | 0 | 16535
2 | 3:40.36 | 3:16.50 | 16536 | 31285
3 | 6:57.11 | 1:20.38 | 31286 | 37323
4 | 8:17.49 | 3:24.43 | 37324 | 52666
5 | 11:42.17 | 1:48.73 | 52667 | 60839
6 | 13:31.15 | 3:55.63 | 60840 | 78527
7 | 17:27.03 | 3:37.48 | 78528 | 94850
8 | 21:04.51 | 2:25.72 | 94851 | 105797
9 | 23:30.48 | 2:42.08 | 105798 | 117955
10 | 26:12.56 | 3:21.61 | 117956 | 133091
11 | 29:34.42 | 2:49.03 | 133092 | 145769
12 | 32:23.45 | 3:08.11 | 145770 | 159880

Характеристики диапазона извлечения и сообщения об ошибках

Выбранный диапазон

Имя файла C:\Agnostic Front – One Voice.wav

Пиковый уровень 100.0 %
Качество диапазона 100.0 %
CRC копии E65AA932
Копирование… OK

Ошибок не произошло

Конец отчёта

REM GENRE Hardcore
REM DATE 1992
REM DISCID A108530C
REM COMMENT “ExactAudioCopy v0.99pb5”
PERFORMER “Agnostic Front”
TITLE “One Voice”
FILE “Agnostic Front – One Voice.flac” WAVE
TRACK 01 AUDIO
TITLE “New Jack”
PERFORMER “Agnostic Front”
INDEX 01 00:00:00
TRACK 02 AUDIO
TITLE “One Voice”
PERFORMER “Agnostic Front”
INDEX 01 03:40:36
TRACK 03 AUDIO
TITLE “Infiltrate”
PERFORMER “Agnostic Front”
INDEX 01 06:57:11
TRACK 04 AUDIO
TITLE “The Tombs”
PERFORMER “Agnostic Front”
INDEX 01 08:17:49
TRACK 05 AUDIO
TITLE “Your Fall”
PERFORMER “Agnostic Front”
INDEX 01 11:42:17
TRACK 06 AUDIO
TITLE “Over The Edge”
PERFORMER “Agnostic Front”
INDEX 01 13:31:15
TRACK 07 AUDIO
TITLE “Undertow”
PERFORMER “Agnostic Front”
INDEX 01 17:27:03
TRACK 08 AUDIO
TITLE “Now & Then”
PERFORMER “Agnostic Front”
INDEX 01 21:04:51
TRACK 09 AUDIO
TITLE “Crime Without Sin”
PERFORMER “Agnostic Front”
INDEX 01 23:30:48
TRACK 10 AUDIO
TITLE “Retaliate”
PERFORMER “Agnostic Front”
INDEX 01 26:12:56
TRACK 11 AUDIO
TITLE “Force Feed”
PERFORMER “Agnostic Front”
INDEX 01 29:34:42
TRACK 12 AUDIO
TITLE “Bastard”
PERFORMER “Agnostic Front”
INDEX 01 32:23:45


Leave a Reply

Your email address will not be published. Required fields are marked *

This site uses Akismet to reduce spam. Learn how your comment data is processed.