Agnostic Front – My Life My Way




Artist: Agnostic Front
Year: 2011
Genre: Hardcore
Notes: Discogs
Add. Notes:
Cover incl.: Yes
Encoder: FLAC
Bitrate: ~1100 kBit/s (44.1 kHz/16 Bit/s)
Log & Cue incl.: Yes
Size: 363,75 MB
Password: “slam” (without ” “)


All Downloads/Hosters are compatible

Download 1
Turbobit.net
Rapidgator.net
KatFile.com
UsersDrive.com
IntoUpload.net
Download 2
Turbobit.net
Rapidgator.net
KatFile.com
UsersDrive.com
IntoUpload.net
Download 3
Turbobit.net
Rapidgator.net
KatFile.com
UsersDrive.com
IntoUpload.net

Tracklist:

1 - City Streets - 2:22
2 - More Than A Memory - 2:39
3 - Us Against The World - 2:16
4 - My Life My Way - 3:51
5 - That's Life - 1:19
6 - Self Pride - 3:13
7 - Until The Day I Die - 2:20
8 - Now And Forever - 2:51
9 - The Sacrifice - 2:59
10 - A Mi Manera - 2:50
11 - Your Worst - 2:20
12 - Empty Dreams - 2:19
13 - Time Has Come - 2:50

EAC-Log, CUE-Sheed & NFO:

Click to open spoiler
Exact Audio Copy V1.0 beta 1 from 15. November 2010

EAC extraction logfile from 28. March 2011, 23:33

Agnostic Front / My Life My Way

Used drive : HL-DT-STDVD-ROM GDR8162B Adapter: 1 ID: 0

Read mode : Secure
Utilize accurate stream : Yes
Defeat audio cache : Yes
Make use of C2 pointers : No

Read offset correction : 102
Overread into Lead-In and Lead-Out : No
Fill up missing offset samples with silence : Yes
Delete leading and trailing silent blocks : No
Null samples used in CRC calculations : Yes
Used interface : Installed external ASPI interface

Used output format : User Defined Encoder
Selected bitrate : 768 kBit/s
Quality : High
Add ID3 tag : No
Command line compressor : C:\Program Files\FLAC.EXE
Additional command line options : -6 -V -T “ARTIST=%a” -T “TITLE=%t” -T “ALBUM=%g” -T “DATE=%y” -T “TRACKNUMBER=%n” -T “GENRE=%m” -T “COMMENT=%e” %j–picture=”%i”%j %s -o %d

TOC of the extracted CD

Track | Start | Length | Start sector | End sector
———————————————————
1 | 0:00.00 | 2:22.33 | 0 | 10682
2 | 2:22.33 | 2:39.08 | 10683 | 22615
3 | 5:01.41 | 2:16.01 | 22616 | 32816
4 | 7:17.42 | 3:51.27 | 32817 | 50168
5 | 11:08.69 | 1:19.40 | 50169 | 56133
6 | 12:28.34 | 3:13.06 | 56134 | 70614
7 | 15:41.40 | 2:20.07 | 70615 | 81121
8 | 18:01.47 | 2:51.14 | 81122 | 93960
9 | 20:52.61 | 2:59.13 | 93961 | 107398
10 | 23:51.74 | 2:50.26 | 107399 | 120174
11 | 26:42.25 | 2:20.02 | 120175 | 130676
12 | 29:02.27 | 2:19.17 | 130677 | 141118
13 | 31:21.44 | 2:50.62 | 141119 | 153930

Range status and errors

Selected range

Filename C:\Agnostic Front – My Life My Way.wav

Peak level 100.0 %
Extraction speed 0.6 X
Range quality 100.0 %
Copy CRC 22CF5F1D
Copy OK

No errors occurred

AccurateRip summary

Track 1 not present in database
Track 2 not present in database
Track 3 not present in database
Track 4 not present in database
Track 5 not present in database
Track 6 not present in database
Track 7 not present in database
Track 8 not present in database
Track 9 not present in database
Track 10 not present in database
Track 11 not present in database
Track 12 not present in database
Track 13 not present in database

None of the tracks are present in the AccurateRip database

End of status report

==== Log checksum D99E7CE7308F0B39953B45C113795131D44F28B4BB17F7FE320741F965FE7917 ====

REM GENRE Hardcore
REM DATE 2011
REM DISCID 9C08040D
REM COMMENT “ExactAudioCopy v1.0b1”
PERFORMER “Agnostic Front”
TITLE “My Life My Way”
FILE “Agnostic Front – My Life My Way.flac” WAVE
TRACK 01 AUDIO
TITLE “City Street”
PERFORMER “Agnostic Front”
INDEX 01 00:00:00
TRACK 02 AUDIO
TITLE “More Than A Memory”
PERFORMER “Agnostic Front”
INDEX 01 02:22:33
TRACK 03 AUDIO
TITLE “Us Against The World”
PERFORMER “Agnostic Front”
INDEX 01 05:01:41
TRACK 04 AUDIO
TITLE “My Life My Way”
PERFORMER “Agnostic Front”
INDEX 01 07:17:42
TRACK 05 AUDIO
TITLE “That’s Life”
PERFORMER “Agnostic Front”
INDEX 01 11:08:69
TRACK 06 AUDIO
TITLE “Self Pride”
PERFORMER “Agnostic Front”
INDEX 01 12:28:34
TRACK 07 AUDIO
TITLE “Until The Day I Die”
PERFORMER “Agnostic Front”
INDEX 01 15:41:40
TRACK 08 AUDIO
TITLE “Now And Forever”
PERFORMER “Agnostic Front”
INDEX 01 18:01:47
TRACK 09 AUDIO
TITLE “The Sacrifice”
PERFORMER “Agnostic Front”
INDEX 01 20:52:61
TRACK 10 AUDIO
TITLE “A Mi Manera”
PERFORMER “Agnostic Front”
INDEX 01 23:51:74
TRACK 11 AUDIO
TITLE “Your Worst Enemy”
PERFORMER “Agnostic Front”
INDEX 01 26:42:25
TRACK 12 AUDIO
TITLE “Empty Dreams”
PERFORMER “Agnostic Front”
INDEX 01 29:02:27
TRACK 13 AUDIO
TITLE “Time Has Come”
PERFORMER “Agnostic Front”
INDEX 01 31:21:44


Leave a Reply

Your email address will not be published. Required fields are marked *

This site uses Akismet to reduce spam. Learn how your comment data is processed.