Agnostic Front – Live At CBGB




Artist: Agnostic Front
Year: 2006
Genre: Punk
Notes: Discogs
Add. Notes:
Cover incl.: Yes
Encoder: FLAC
Bitrate: ~1000 kBit/s (44.1 kHz/16 Bit/s)
Log & Cue incl.: Yes
Size: 393,66 MB
Password: “slam” (without ” “)


All Downloads/Hosters are compatible

Download 1
Turbobit.net
Rapidgator.net
UploadEver.com
KatFile.com
UsersDrive.com
Download 2
Turbobit.net
Rapidgator.net
UploadEver.com
KatFile.com
UsersDrive.com
Download 3
Turbobit.net
Rapidgator.net
UploadEver.com
KatFile.com
UsersDrive.com

Tracklist:

1 - Eliminator - 4:18
2 - New Jack - 2:34
3 - Victim In Pain - 0:42
4 - Your Mistake - 1:38
5 - Blind Justice - 1:17
6 - Last Warning - 1:31
7 - Strength - 2:39
8 - Crucified - 2:58
9 - All Is Not Forgotten - 3:11
10 - Peace - 2:29
11 - One Voice - 3:11
12 - Over The Edge - 4:04
13 - Friend Or Foe - 2:19
14 - Gotta Go - 3:29
15 - Riot Riot Upstart - 2:05
16 - Police State - 1:14
17 - Undertow - 2:59
18 - Public Assistance - 4:24
19 - Anthem - 3:09
20 - So Pure To Me - 2:10
21 - Take Me Back - 1:57

EAC-Log, CUE-Sheed & NFO:

Click to open spoiler
Exact Audio Copy V0.99 prebeta 5 from 4. May 2009

Отчёт EAC об извлечении, выполненном 25. июня 2010, 9:01

Agnostic Front / Live At CBGB

Дисковод: HL-DT-STBD-RE GGW-H20L Adapter: 1 ID: 0

Режим чтения : Достоверность
Использование точного потока : Да
Отключение кэша аудио : Да
Использование указателей C2 : Нет

Коррекция смещения при чтении : 667
Способность читать области Lead-in и Lead-out : Нет
Заполнение пропущенных сэмплов тишиной : Да
Удаление блоков с тишиной в начале и конце : Нет
При вычислениях CRC использовались нулевые сэмплы : Да
Интерфейс : Встроенный Win32-интерфейс для Win NT/2000

Выходной формат : Пользовательский кодировщик
Выбранный битрейт : 768 kBit/s
Качество : Высокий
Добавление ID3-тэга : Нет
Утилита сжатия : C:\FLAC\FLAC.EXE
Дополнительные параметры : -6 -V -T “ARTIST=%a” -T “TITLE=%t” -T “ALBUM=%g” -T “DATE=%y” -T “TRACKNUMBER=%n” -T “GENRE=%m” -T “COMMENT=%e” %s -o %d

TOC извлечённого CD

Трек | Старт | Длительность | Начальный сектор | Конечный сектор
———————————————————————
1 | 0:00.00 | 4:18.31 | 0 | 19380
2 | 4:18.31 | 2:34.16 | 19381 | 30946
3 | 6:52.47 | 0:42.57 | 30947 | 34153
4 | 7:35.29 | 1:38.16 | 34154 | 41519
5 | 9:13.45 | 1:16.71 | 41520 | 47290
6 | 10:30.41 | 1:31.27 | 47291 | 54142
7 | 12:01.68 | 2:39.26 | 54143 | 66093
8 | 14:41.19 | 2:58.01 | 66094 | 79444
9 | 17:39.20 | 3:11.69 | 79445 | 93838
10 | 20:51.14 | 2:28.73 | 93839 | 105011
11 | 23:20.12 | 3:11.45 | 105012 | 119381
12 | 26:31.57 | 4:03.71 | 119382 | 137677
13 | 30:35.53 | 2:19.56 | 137678 | 148158
14 | 32:55.34 | 3:29.23 | 148159 | 163856
15 | 36:24.57 | 2:05.10 | 163857 | 173241
16 | 38:29.67 | 1:14.24 | 173242 | 178815
17 | 39:44.16 | 2:59.00 | 178816 | 192240
18 | 42:43.16 | 4:24.15 | 192241 | 212055
19 | 47:07.31 | 3:09.62 | 212056 | 226292
20 | 50:17.18 | 2:10.55 | 226293 | 236097
21 | 52:27.73 | 1:57.31 | 236098 | 244903

Характеристики диапазона извлечения и сообщения об ошибках

Выбранный диапазон

Имя файла C:\Agnostic Front – Live At CBGB.wav

Пиковый уровень 99.5 %
Качество диапазона 100.0 %
CRC копии 3550AE6D
Копирование… OK

Ошибок не произошло

Конец отчёта

REM GENRE Hardcore
REM DATE 2006
REM DISCID 240CC115
REM COMMENT “ExactAudioCopy v0.99pb5”
PERFORMER “Agnostic Front”
TITLE “Live At CBGB”
FILE “Agnostic Front – Live At CBGB.flac” WAVE
TRACK 01 AUDIO
TITLE “Eliminator”
PERFORMER “Agnostic Front”
INDEX 01 00:00:00
TRACK 02 AUDIO
TITLE “New Jack”
PERFORMER “Agnostic Front”
INDEX 01 04:18:31
TRACK 03 AUDIO
TITLE “Victim In Pain”
PERFORMER “Agnostic Front”
INDEX 01 06:52:47
TRACK 04 AUDIO
TITLE “Your Mistake”
PERFORMER “Agnostic Front”
INDEX 01 07:35:29
TRACK 05 AUDIO
TITLE “Blind Justice”
PERFORMER “Agnostic Front”
INDEX 01 09:13:45
TRACK 06 AUDIO
TITLE “Last Warning”
PERFORMER “Agnostic Front”
INDEX 01 10:30:41
TRACK 07 AUDIO
TITLE “Strength”
PERFORMER “Agnostic Front”
INDEX 01 12:01:68
TRACK 08 AUDIO
TITLE “Crucified”
PERFORMER “Agnostic Front”
INDEX 01 14:41:19
TRACK 09 AUDIO
TITLE “All Is Not Forgotten”
PERFORMER “Agnostic Front”
INDEX 01 17:39:20
TRACK 10 AUDIO
TITLE “Peace”
PERFORMER “Agnostic Front”
INDEX 01 20:51:14
TRACK 11 AUDIO
TITLE “One Voice”
PERFORMER “Agnostic Front”
INDEX 01 23:20:12
TRACK 12 AUDIO
TITLE “Over The Edge”
PERFORMER “Agnostic Front”
INDEX 01 26:31:57
TRACK 13 AUDIO
TITLE “Friend Or Foe”
PERFORMER “Agnostic Front”
INDEX 01 30:35:53
TRACK 14 AUDIO
TITLE “Gotta Go”
PERFORMER “Agnostic Front”
INDEX 01 32:55:34
TRACK 15 AUDIO
TITLE “Riot Riot Upstart”
PERFORMER “Agnostic Front”
INDEX 01 36:24:57
TRACK 16 AUDIO
TITLE “Police State”
PERFORMER “Agnostic Front”
INDEX 01 38:29:67
TRACK 17 AUDIO
TITLE “Undertow”
PERFORMER “Agnostic Front”
INDEX 01 39:44:16
TRACK 18 AUDIO
TITLE “Public Assistance”
PERFORMER “Agnostic Front”
INDEX 01 42:43:16
TRACK 19 AUDIO
TITLE “Anthem”
PERFORMER “Agnostic Front”
INDEX 01 47:07:31
TRACK 20 AUDIO
TITLE “So Pure To Me”
PERFORMER “Agnostic Front”
INDEX 01 50:17:18
TRACK 21 AUDIO
TITLE “Take Me Back”
PERFORMER “Agnostic Front”
INDEX 01 52:27:73

Leave a Reply

Your email address will not be published. Required fields are marked *

Enter the text from the image below
 

This site uses Akismet to reduce spam. Learn how your comment data is processed.