Agnostic Front – Liberty & Justice For…




Artist: Agnostic Front
Year: 1987
Genre: Hardcore
Notes: Discogs
Add. Notes:
Cover incl.: Yes
Encoder: FLAC
Bitrate: ~1000 kBit/s (44.1 kHz/16 Bit/s)
Log & Cue incl.: Yes
Size: 180,75 MB
Password: “slam” (without ” “)


All Downloads/Hosters are compatible

Download 1
Turbobit.net
Rapidgator.net
UploadEver.com
KatFile.com
UsersDrive.com
Download 2
Turbobit.net
Rapidgator.net
UploadEver.com
KatFile.com
UsersDrive.com
Download 3
Turbobit.net
Rapidgator.net
UploadEver.com
KatFile.com
UsersDrive.com

Tracklist:

1 - Liberty & Justice - 2:56
2 - Crucial Moment - 1:08
3 - Strength - 2:43
4 - Genesis - 1:37
5 - Anthem - 2:52
6 - Another Side - 2:51
7 - Happened Yesterday - 2:29
8 - Lost - 1:59
9 - Hypocrisy - 2:47
10 - Crucified - 2:28
11 - Censored - 2:00

EAC-Log, CUE-Sheed & NFO:

Click to open spoiler
Exact Audio Copy V0.99 prebeta 5 from 4. May 2009

Отчёт EAC об извлечении, выполненном 26. июня 2010, 1:03

Agnostic Front / Liberty & Justice for …

Дисковод: HL-DT-STBD-RE GGW-H20L Adapter: 1 ID: 0

Режим чтения : Достоверность
Использование точного потока : Да
Отключение кэша аудио : Да
Использование указателей C2 : Нет

Коррекция смещения при чтении : 667
Способность читать области Lead-in и Lead-out : Нет
Заполнение пропущенных сэмплов тишиной : Да
Удаление блоков с тишиной в начале и конце : Нет
При вычислениях CRC использовались нулевые сэмплы : Да
Интерфейс : Встроенный Win32-интерфейс для Win NT/2000

Выходной формат : Пользовательский кодировщик
Выбранный битрейт : 768 kBit/s
Качество : Высокий
Добавление ID3-тэга : Нет
Утилита сжатия : C:\FLAC\FLAC.EXE
Дополнительные параметры : -6 -V -T “ARTIST=%a” -T “TITLE=%t” -T “ALBUM=%g” -T “DATE=%y” -T “TRACKNUMBER=%n” -T “GENRE=%m” -T “COMMENT=%e” %s -o %d

TOC извлечённого CD

Трек | Старт | Длительность | Начальный сектор | Конечный сектор
———————————————————————
1 | 0:00.12 | 2:56.08 | 12 | 13219
2 | 2:56.20 | 1:08.47 | 13220 | 18366
3 | 4:04.67 | 2:43.65 | 18367 | 30656
4 | 6:48.57 | 1:37.15 | 30657 | 37946
5 | 8:25.72 | 2:52.48 | 37947 | 50894
6 | 11:18.45 | 2:51.67 | 50895 | 63786
7 | 14:10.37 | 2:29.00 | 63787 | 74961
8 | 16:39.37 | 1:59.43 | 74962 | 83929
9 | 18:39.05 | 2:47.45 | 83930 | 96499
10 | 21:26.50 | 2:28.25 | 96500 | 107624
11 | 23:55.00 | 2:00.07 | 107625 | 116631

Характеристики диапазона извлечения и сообщения об ошибках

Выбранный диапазон

Имя файла C:\Agnostic Front – Liberty & Justice for ….wav

Пиковый уровень 100.0 %
Качество диапазона 99.9 %
CRC копии DAF6A597
Копирование… OK

Ошибок не произошло

Конец отчёта

REM GENRE Hardcore
REM DATE 1987
REM DISCID 7506130B
REM COMMENT “ExactAudioCopy v0.99pb5”
PERFORMER “Agnostic Front”
TITLE “Liberty & Justice for …”
FILE “Agnostic Front – Liberty & Justice for ….flac” WAVE
TRACK 01 AUDIO
TITLE “Liberty & Justice”
PERFORMER “Agnostic Front”
INDEX 00 00:00:00
INDEX 01 00:00:12
TRACK 02 AUDIO
TITLE “Crucial Moment”
PERFORMER “Agnostic Front”
INDEX 01 02:56:20
TRACK 03 AUDIO
TITLE “Strength”
PERFORMER “Agnostic Front”
INDEX 00 04:04:45
INDEX 01 04:04:67
TRACK 04 AUDIO
TITLE “Genesis”
PERFORMER “Agnostic Front”
INDEX 01 06:48:57
TRACK 05 AUDIO
TITLE “Anthem”
PERFORMER “Agnostic Front”
INDEX 00 08:25:50
INDEX 01 08:25:72
TRACK 06 AUDIO
TITLE “Another Side”
PERFORMER “Agnostic Front”
INDEX 00 11:17:52
INDEX 01 11:18:45
TRACK 07 AUDIO
TITLE “Happened Yesterday”
PERFORMER “Agnostic Front”
INDEX 00 14:10:17
INDEX 01 14:10:37
TRACK 08 AUDIO
TITLE “Lost”
PERFORMER “Agnostic Front”
INDEX 01 16:39:37
TRACK 09 AUDIO
TITLE “Hypocrisy”
PERFORMER “Agnostic Front”
INDEX 00 18:38:35
INDEX 01 18:39:05
TRACK 10 AUDIO
TITLE “Crucified”
PERFORMER “Agnostic Front”
INDEX 00 21:26:33
INDEX 01 21:26:50
TRACK 11 AUDIO
TITLE “Censored”
PERFORMER “Agnostic Front”
INDEX 00 23:54:17
INDEX 01 23:55:00

Leave a Reply

Your email address will not be published. Required fields are marked *

This site uses Akismet to reduce spam. Learn how your comment data is processed.