Agnostic Front – Last Warning




Artist: Agnostic Front
Year: 1993
Genre: Punk
Notes: Discogs
Add. Notes:
Cover incl.: Yes
Encoder: FLAC
Bitrate: ~800 kBit/s (44.1 kHz/16 Bit/s)
Log & Cue incl.: Yes
Size: 282,09 MB
Password: “slam” (without ” “)


All Downloads/Hosters are compatible

Download 1
Turbobit.net
Rapidgator.net
UploadByte.com
UploadEver.com
JustUpload.io
Download 2
Turbobit.net
Rapidgator.net
UploadByte.com
UploadEver.com
JustUpload.io
Download 3
Turbobit.net
Rapidgator.net
UploadByte.com
UploadEver.com
JustUpload.io

Tracklist:

Last Warning
1 - Undertow - 3:47
2 - Your Mistake / Victim In Pain - 2:21
3 - One Voice - 3:56
4 - Infiltrate / Strength - 3:59
5 - United Blood - 1:36
6 - Public Assistance / Over The Edge - 6:39
7 - Blind Justice / Last Warning - 2:01
8 - Crucified - 2:51
9 - Toxic Shock / United & Strong - 3:25
10 - Fascist Attitudes - 2:37
11 - Anthem / The Eliminator - 6:37
United Blood
12 - No One Rules - 0:25
13 - Final War - 0:22
14 - Last Warning - 0:48
15 - Traitor - 0:25
16 - Friend Or Foe - 1:16
17 - United Blood - 1:13
18 - Fight - 0:15
19 - Discriminate Me - 0:42
20 - In Control - 0:30
21 - Crucial Changes - 0:25

EAC-Log, CUE-Sheed & NFO:

Click to open spoiler
Exact Audio Copy V0.99 prebeta 5 from 4. May 2009

Отчёт EAC об извлечении, выполненном 26. июня 2010, 10:59

Agnostic Front / Last Warning

Дисковод: HL-DT-STBD-RE GGW-H20L Adapter: 1 ID: 0

Режим чтения : Достоверность
Использование точного потока : Да
Отключение кэша аудио : Да
Использование указателей C2 : Нет

Коррекция смещения при чтении : 667
Способность читать области Lead-in и Lead-out : Нет
Заполнение пропущенных сэмплов тишиной : Да
Удаление блоков с тишиной в начале и конце : Нет
При вычислениях CRC использовались нулевые сэмплы : Да
Интерфейс : Встроенный Win32-интерфейс для Win NT/2000

Выходной формат : Пользовательский кодировщик
Выбранный битрейт : 768 kBit/s
Качество : Высокий
Добавление ID3-тэга : Нет
Утилита сжатия : C:\FLAC.EXE
Дополнительные параметры : -6 -V -T “ARTIST=%a” -T “TITLE=%t” -T “ALBUM=%g” -T “DATE=%y” -T “TRACKNUMBER=%n” -T “GENRE=%m” -T “COMMENT=%e” %s -o %d

TOC извлечённого CD

Трек | Старт | Длительность | Начальный сектор | Конечный сектор
———————————————————————
1 | 0:00.00 | 3:47.27 | 0 | 17051
2 | 3:47.27 | 2:21.53 | 17052 | 27679
3 | 6:09.05 | 3:56.20 | 27680 | 45399
4 | 10:05.25 | 3:59.60 | 45400 | 63384
5 | 14:05.10 | 1:36.67 | 63385 | 70651
6 | 15:42.02 | 6:39.43 | 70652 | 100619
7 | 22:21.45 | 2:01.65 | 100620 | 109759
8 | 24:23.35 | 2:51.19 | 109760 | 122603
9 | 27:14.54 | 3:25.21 | 122604 | 137999
10 | 30:40.00 | 2:38.00 | 138000 | 149849
11 | 33:18.00 | 6:37.67 | 149850 | 179691
12 | 39:55.67 | 0:25.33 | 179692 | 181599
13 | 40:21.25 | 0:22.15 | 181600 | 183264
14 | 40:43.40 | 0:48.05 | 183265 | 186869
15 | 41:31.45 | 0:25.25 | 186870 | 188769
16 | 41:56.70 | 1:16.62 | 188770 | 194531
17 | 43:13.57 | 1:13.38 | 194532 | 200044
18 | 44:27.20 | 0:15.40 | 200045 | 201209
19 | 44:42.60 | 0:42.57 | 201210 | 204416
20 | 45:25.42 | 0:30.15 | 204417 | 206681
21 | 45:55.57 | 0:25.45 | 206682 | 208601

Характеристики диапазона извлечения и сообщения об ошибках

Выбранный диапазон

Имя файла C:\Agnostic Front – Last Warning.wav

Пиковый уровень 98.3 %
Качество диапазона 100.0 %
CRC копии 62874D11
Копирование… OK

Ошибок не произошло

Конец отчёта

REM GENRE Hardcore
REM DATE 1993
REM DISCID 400ADD15
REM COMMENT “ExactAudioCopy v0.99pb5”
PERFORMER “Agnostic Front”
TITLE “Last Warning”
FILE “Agnostic Front – Last Warning.flac” WAVE
TRACK 01 AUDIO
TITLE “Undertow [Live]”
PERFORMER “Agnostic Front”
INDEX 01 00:00:00
TRACK 02 AUDIO
TITLE “Your Mistake/Victim In Pain [Live]”
PERFORMER “Agnostic Front”
INDEX 00 03:45:25
INDEX 01 03:47:27
TRACK 03 AUDIO
TITLE “One Voice [Live]”
PERFORMER “Agnostic Front”
INDEX 00 06:07:47
INDEX 01 06:09:05
TRACK 04 AUDIO
TITLE “Infiltrate/Strength [Live]”
PERFORMER “Agnostic Front”
INDEX 00 10:04:02
INDEX 01 10:05:25
TRACK 05 AUDIO
TITLE “United Blood [Live]”
PERFORMER “Agnostic Front”
INDEX 00 14:04:15
INDEX 01 14:05:10
TRACK 06 AUDIO
TITLE “Public Assistance/Over The Edge [Live]”
PERFORMER “Agnostic Front”
INDEX 00 15:40:12
INDEX 01 15:42:02
TRACK 07 AUDIO
TITLE “Blind Justice/Last Warning [Live]”
PERFORMER “Agnostic Front”
INDEX 00 22:20:00
INDEX 01 22:21:45
TRACK 08 AUDIO
TITLE “Crucified [Live]”
PERFORMER “Agnostic Front”
INDEX 00 24:20:47
INDEX 01 24:23:35
TRACK 09 AUDIO
TITLE “Toxic Shock/United & Strong [Live]”
PERFORMER “Agnostic Front”
INDEX 00 27:13:32
INDEX 01 27:14:54
TRACK 10 AUDIO
TITLE “Fascist Attitudes [Live]”
PERFORMER “Agnostic Front”
INDEX 00 30:38:37
INDEX 01 30:40:00
TRACK 11 AUDIO
TITLE “Anthem/The Eliminator [Live]”
PERFORMER “Agnostic Front”
INDEX 00 33:15:40
INDEX 01 33:18:00
TRACK 12 AUDIO
TITLE “No One Rules”
PERFORMER “Agnostic Front”
INDEX 00 39:52:60
INDEX 01 39:55:67
TRACK 13 AUDIO
TITLE “Final War”
PERFORMER “Agnostic Front”
INDEX 01 40:21:25
TRACK 14 AUDIO
TITLE “Last Warning”
PERFORMER “Agnostic Front”
INDEX 01 40:43:40
TRACK 15 AUDIO
TITLE “Traitor”
PERFORMER “Agnostic Front”
INDEX 01 41:31:45
TRACK 16 AUDIO
TITLE “Friend Or Foe”
PERFORMER “Agnostic Front”
INDEX 01 41:56:70
TRACK 17 AUDIO
TITLE “United Blood”
PERFORMER “Agnostic Front”
INDEX 00 43:12:25
INDEX 01 43:13:57
TRACK 18 AUDIO
TITLE “Fight”
PERFORMER “Agnostic Front”
INDEX 00 44:26:55
INDEX 01 44:27:20
TRACK 19 AUDIO
TITLE “Discriminate Me”
PERFORMER “Agnostic Front”
INDEX 00 44:41:72
INDEX 01 44:42:60
TRACK 20 AUDIO
TITLE “In Control”
PERFORMER “Agnostic Front”
INDEX 00 45:24:70
INDEX 01 45:25:42
TRACK 21 AUDIO
TITLE “Crucial Changes”
PERFORMER “Agnostic Front”
INDEX 00 45:55:42
INDEX 01 45:55:57

Leave a Reply

Your email address will not be published. Required fields are marked *

Enter the text from the image below
 

This site uses Akismet to reduce spam. Learn how your comment data is processed.