Agnostic Front / Discipline – Working Class Heroes




Artist: Agnostic Front / Discipline
Year: 2002
Genre: Hardcore
Notes: Discogs
Add. Notes:
Cover incl.: Yes
Encoder: FLAC
Bitrate: ~1000 kBit/s (44.1 kHz/16 Bit/s)
Log & Cue incl.: Yes
Size: 496,5 MB
Password: “slam” (without ” “)


All Downloads/Hosters are compatible

Download 1
Turbobit.net
Rapidgator.net
KatFile.com
UploadRar.com
Download 2
Turbobit.net
Rapidgator.net
KatFile.com
UploadRar.com
Download 3
Turbobit.net
Rapidgator.net
KatFile.com
UploadRar.com

Tracklist:

1. Agnostic Front - Believe - 1:57
2. Agnostic Front - Riot, Riot, Upstart - 2:20
3. Agnostic Front - Sit And Watch - 1:56
4. Agnostic Front - Victim In Pain - 0:51
5. Agnostic Front - Last Warning - 1:05
6. Agnostic Front - Rock Star - 1:53
7. Agnostic Front - Sickness - 2:30
8. Agnostic Front - Gotta Go - 3:38
9. Agnostic Front - No Fear - 2:28
10. Agnostic Front - Before My Eyes - 2:12
11. Agnostic Front - United Blood - 1:38
12. Agnostic Front - Police State - 2:51
13. Agnostic Front - Pauly The Dog - 1:11
14. Agnostic Front - Bullet On Mott St. - 2:10
15. Agnostic Front - Crucified - 3:15
16. Discipline - Now Or Never - 2:06
17. Discipline - Young & Reckless - 3:02
18. Discipline - Our Pride - 2:22
19. Discipline - Rejects Of Society - 3:16
20. Discipline - Neverending Story - 2:02
21. Discipline - Nice Boys Finish Last - 3:15
22. Discipline - Running Riot - 3:24
23. Discipline - C'mon, C'mon - 0:35
24. Discipline - Hooligans Heaven - 3:03
25. Discipline - Fuck You Anyway - 2:46
26. Discipline - Saturdaynight Riot - 2:32
27. Discipline - These Streets - 3:42
28. Discipline - Frontline Skins - 3:21
29. Discipline - Violence In Our Minds - 3:22

EAC-Log, CUE-Sheed & NFO:

Click to open spoiler
Exact Audio Copy V0.99 prebeta 5 from 4. May 2009

Отчёт EAC об извлечении, выполненном 26. июня 2010, 17:33

Agnostic Front & Discipline / Working Class Heroes

Дисковод: HL-DT-STBD-RE GGW-H20L Adapter: 1 ID: 0

Режим чтения : Достоверность
Использование точного потока : Да
Отключение кэша аудио : Да
Использование указателей C2 : Нет

Коррекция смещения при чтении : 667
Способность читать области Lead-in и Lead-out : Нет
Заполнение пропущенных сэмплов тишиной : Да
Удаление блоков с тишиной в начале и конце : Нет
При вычислениях CRC использовались нулевые сэмплы : Да
Интерфейс : Встроенный Win32-интерфейс для Win NT/2000

Выходной формат : Пользовательский кодировщик
Выбранный битрейт : 768 kBit/s
Качество : Высокий
Добавление ID3-тэга : Нет
Утилита сжатия : C:\FLAC.EXE
Дополнительные параметры : -6 -V -T “ARTIST=%a” -T “TITLE=%t” -T “ALBUM=%g” -T “DATE=%y” -T “TRACKNUMBER=%n” -T “GENRE=%m” -T “COMMENT=%e” %s -o %d

TOC извлечённого CD

Трек | Старт | Длительность | Начальный сектор | Конечный сектор
———————————————————————
1 | 0:00.07 | 1:57.20 | 7 | 8801
2 | 1:57.27 | 2:20.50 | 8802 | 19351
3 | 4:18.02 | 1:56.10 | 19352 | 28061
4 | 6:14.12 | 0:51.35 | 28062 | 31921
5 | 7:05.47 | 1:05.35 | 31922 | 36831
6 | 8:11.07 | 1:53.40 | 36832 | 45346
7 | 10:04.47 | 2:30.53 | 45347 | 56649
8 | 12:35.25 | 3:38.45 | 56650 | 73044
9 | 16:13.70 | 2:28.40 | 73045 | 84184
10 | 18:42.35 | 2:12.35 | 84185 | 94119
11 | 20:54.70 | 1:38.20 | 94120 | 101489
12 | 22:33.15 | 2:51.15 | 101490 | 114329
13 | 25:24.30 | 1:11.27 | 114330 | 119681
14 | 26:35.57 | 2:10.18 | 119682 | 129449
15 | 28:46.00 | 3:15.17 | 129450 | 144091
16 | 32:01.17 | 2:06.30 | 144092 | 153571
17 | 34:07.47 | 3:02.20 | 153572 | 167241
18 | 37:09.67 | 2:22.10 | 167242 | 177901
19 | 39:32.02 | 3:16.65 | 177902 | 192666
20 | 42:48.67 | 2:02.00 | 192667 | 201816
21 | 44:50.67 | 3:15.15 | 201817 | 216456
22 | 48:06.07 | 3:24.73 | 216457 | 231829
23 | 51:31.05 | 0:35.40 | 231830 | 234494
24 | 52:06.45 | 3:03.37 | 234495 | 248256
25 | 55:10.07 | 2:46.40 | 248257 | 260746
26 | 57:56.47 | 2:32.63 | 260747 | 272209
27 | 60:29.35 | 3:42.10 | 272210 | 288869
28 | 64:11.45 | 3:21.65 | 288870 | 304009
29 | 67:33.35 | 3:22.27 | 304010 | 319186

Характеристики диапазона извлечения и сообщения об ошибках

Выбранный диапазон

Имя файла C:\Agnostic Front & Discipline – Working Class Heroes.wav

Пиковый уровень 100.0 %
Качество диапазона 100.0 %
CRC копии FB70D778
Копирование… OK

Ошибок не произошло

Конец отчёта

REM GENRE Hardcore
REM DATE 2002
REM DISCID AC109F1D
REM COMMENT “ExactAudioCopy v0.99pb5”
PERFORMER “Agnostic Front & Discipline”
TITLE “Working Class Heroes”
FILE “Agnostic Front & Discipline – Working Class Heroes.flac” WAVE
TRACK 01 AUDIO
TITLE “Believe”
PERFORMER “Agnostic Front & Discipline”
INDEX 00 00:00:00
INDEX 01 00:00:07
TRACK 02 AUDIO
TITLE “Riot, Riot, Upstart”
PERFORMER “Agnostic Front & Discipline”
INDEX 01 01:57:27
TRACK 03 AUDIO
TITLE “Sit And Watch”
PERFORMER “Agnostic Front & Discipline”
INDEX 01 04:18:02
TRACK 04 AUDIO
TITLE “Victim In Pain”
PERFORMER “Agnostic Front & Discipline”
INDEX 01 06:14:12
TRACK 05 AUDIO
TITLE “Last Warning”
PERFORMER “Agnostic Front & Discipline”
INDEX 01 07:05:47
TRACK 06 AUDIO
TITLE “Rock Star”
PERFORMER “Agnostic Front & Discipline”
INDEX 01 08:11:07
TRACK 07 AUDIO
TITLE “Sickness”
PERFORMER “Agnostic Front & Discipline”
INDEX 01 10:04:47
TRACK 08 AUDIO
TITLE “Gotta Go”
PERFORMER “Agnostic Front & Discipline”
INDEX 01 12:35:25
TRACK 09 AUDIO
TITLE “No Fear”
PERFORMER “Agnostic Front & Discipline”
INDEX 01 16:13:70
TRACK 10 AUDIO
TITLE “Before My Eyes”
PERFORMER “Agnostic Front & Discipline”
INDEX 01 18:42:35
TRACK 11 AUDIO
TITLE “United Blood”
PERFORMER “Agnostic Front & Discipline”
INDEX 01 20:54:70
TRACK 12 AUDIO
TITLE “Police State”
PERFORMER “Agnostic Front & Discipline”
INDEX 01 22:33:15
TRACK 13 AUDIO
TITLE “Pauly The Dog”
PERFORMER “Agnostic Front & Discipline”
INDEX 01 25:24:30
TRACK 14 AUDIO
TITLE “Bullet On Mott St.”
PERFORMER “Agnostic Front & Discipline”
INDEX 01 26:35:57
TRACK 15 AUDIO
TITLE “Crucified”
PERFORMER “Agnostic Front & Discipline”
INDEX 01 28:46:00
TRACK 16 AUDIO
TITLE “Now Or Never”
PERFORMER “Agnostic Front & Discipline”
INDEX 01 32:01:17
TRACK 17 AUDIO
TITLE “Young And Reckless”
PERFORMER “Agnostic Front & Discipline”
INDEX 01 34:07:47
TRACK 18 AUDIO
TITLE “Our Pride”
PERFORMER “Agnostic Front & Discipline”
INDEX 01 37:09:67
TRACK 19 AUDIO
TITLE “Rejects Of Society”
PERFORMER “Agnostic Front & Discipline”
INDEX 01 39:32:02
TRACK 20 AUDIO
TITLE “Neverending Story”
PERFORMER “Agnostic Front & Discipline”
INDEX 01 42:48:67
TRACK 21 AUDIO
TITLE “Nice Boys Finished Last”
PERFORMER “Agnostic Front & Discipline”
INDEX 01 44:50:67
TRACK 22 AUDIO
TITLE “Running riot”
PERFORMER “Agnostic Front & Discipline”
INDEX 01 48:06:07
TRACK 23 AUDIO
TITLE “Come On, Come On”
PERFORMER “Agnostic Front & Discipline”
INDEX 01 51:31:05
TRACK 24 AUDIO
TITLE “Hooligans Heaven”
PERFORMER “Agnostic Front & Discipline”
INDEX 01 52:06:45
TRACK 25 AUDIO
TITLE “Fuck You Anyway”
PERFORMER “Agnostic Front & Discipline”
INDEX 01 55:10:07
TRACK 26 AUDIO
TITLE “Saturday Night Riot”
PERFORMER “Agnostic Front & Discipline”
INDEX 01 57:56:47
TRACK 27 AUDIO
TITLE “These Streets”
PERFORMER “Agnostic Front & Discipline”
INDEX 01 60:29:35
TRACK 28 AUDIO
TITLE “Frontline Skins”
PERFORMER “Agnostic Front & Discipline”
INDEX 01 64:11:45
TRACK 29 AUDIO
TITLE “Violence In Our Minds”
PERFORMER “Agnostic Front & Discipline”
INDEX 01 67:33:35


Leave a Reply

Your email address will not be published. Required fields are marked *

This site uses Akismet to reduce spam. Learn how your comment data is processed.