Agnostic Front – Dead Yuppies




Artist: Agnostic Front
Year: 2001
Genre: Hardcore
Notes: Discogs
Add. Notes:
Cover incl.: Yes
Encoder: FLAC
Bitrate: ~1100 kBit/s (44.1 kHz/16 Bit/s)
Log & Cue incl.: Yes
Size: 232,73 MB
Password: “slam” (without ” “)


All Downloads/Hosters are compatible

Download 1
Turbobit.net
KatFile.com
Rapidgator.net
Usersdrive.com
Download 2
Turbobit.net
KatFile.com
Rapidgator.net
Usersdrive.com

Tracklist:

1 - I Wanna Know - 2:21
2 - Out Of Reach - 2:01
3 - Everybody's A Critic - 1:15
4 - Liberty - 2:44
5 - Club Girl - 1:41
6 - Uncle Sam - 1:48
7 - Urban Decadence - 1:56
8 - Love To Be Hated - 2:13
9 - No Mercy - 1:34
10 - Politician - 2:08
11 - Pedophile - 2:27
12 - Alright - 2:31
13 - Dead Yuppies - 2:47
14 - Standing On My Own - 1:45

EAC-Log, CUE-Sheed & NFO:

Click to open spoiler
Exact Audio Copy V0.99 prebeta 5 from 4. May 2009

Отчёт EAC об извлечении, выполненном 26. июня 2010, 12:13

Agnostic Front / Dead Yuppies

Дисковод: HL-DT-STBD-RE GGW-H20L Adapter: 1 ID: 0

Режим чтения : Достоверность
Использование точного потока : Да
Отключение кэша аудио : Да
Использование указателей C2 : Нет

Коррекция смещения при чтении : 667
Способность читать области Lead-in и Lead-out : Нет
Заполнение пропущенных сэмплов тишиной : Да
Удаление блоков с тишиной в начале и конце : Нет
При вычислениях CRC использовались нулевые сэмплы : Да
Интерфейс : Встроенный Win32-интерфейс для Win NT/2000

Выходной формат : Пользовательский кодировщик
Выбранный битрейт : 768 kBit/s
Качество : Высокий
Добавление ID3-тэга : Нет
Утилита сжатия : C:\FLAC.EXE
Дополнительные параметры : -6 -V -T “ARTIST=%a” -T “TITLE=%t” -T “ALBUM=%g” -T “DATE=%y” -T “TRACKNUMBER=%n” -T “GENRE=%m” -T “COMMENT=%e” %s -o %d

TOC извлечённого CD

Трек | Старт | Длительность | Начальный сектор | Конечный сектор
———————————————————————
1 | 0:00.00 | 2:21.24 | 0 | 10598
2 | 2:21.24 | 2:01.69 | 10599 | 19742
3 | 4:23.18 | 1:15.74 | 19743 | 25441
4 | 5:39.17 | 2:44.21 | 25442 | 37762
5 | 8:23.38 | 1:41.61 | 37763 | 45398
6 | 10:05.24 | 1:48.38 | 45399 | 53536
7 | 11:53.62 | 1:56.21 | 53537 | 62257
8 | 13:50.08 | 2:13.41 | 62258 | 72273
9 | 16:03.49 | 1:34.12 | 72274 | 79335
10 | 17:37.61 | 2:08.01 | 79336 | 88936
11 | 19:45.62 | 2:27.55 | 88937 | 100016
12 | 22:13.42 | 2:31.72 | 100017 | 111413
13 | 24:45.39 | 2:47.29 | 111414 | 123967
14 | 27:32.68 | 1:45.63 | 123968 | 131905

Характеристики диапазона извлечения и сообщения об ошибках

Выбранный диапазон

Имя файла C:\Agnostic Front – Dead Yuppies.wav

Пиковый уровень 98.3 %
Качество диапазона 100.0 %
CRC копии 2EFFD3EC
Копирование… OK

Ошибок не произошло

Конец отчёта

REM GENRE Hardcore
REM DATE 2001
REM DISCID B406DE0E
REM COMMENT “ExactAudioCopy v0.99pb5”
PERFORMER “Agnostic Front”
TITLE “Dead Yuppies”
FILE “Agnostic Front – Dead Yuppies.flac” WAVE
TRACK 01 AUDIO
TITLE “I Wanna Know”
PERFORMER “Agnostic Front”
INDEX 01 00:00:00
TRACK 02 AUDIO
TITLE “Out Of Reach”
PERFORMER “Agnostic Front”
INDEX 00 02:20:64
INDEX 01 02:21:24
TRACK 03 AUDIO
TITLE “Everybody’s A Critic”
PERFORMER “Agnostic Front”
INDEX 00 04:22:64
INDEX 01 04:23:18
TRACK 04 AUDIO
TITLE “Liberty”
PERFORMER “Agnostic Front”
INDEX 00 05:38:63
INDEX 01 05:39:17
TRACK 05 AUDIO
TITLE “Club Girl”
PERFORMER “Agnostic Front”
INDEX 00 08:22:73
INDEX 01 08:23:38
TRACK 06 AUDIO
TITLE “Uncle Sam”
PERFORMER “Agnostic Front”
INDEX 00 10:05:00
INDEX 01 10:05:24
TRACK 07 AUDIO
TITLE “Urban Decadence”
PERFORMER “Agnostic Front”
INDEX 00 11:53:23
INDEX 01 11:53:62
TRACK 08 AUDIO
TITLE “Love To Be Hated”
PERFORMER “Agnostic Front”
INDEX 00 13:49:54
INDEX 01 13:50:08
TRACK 09 AUDIO
TITLE “No Mercy”
PERFORMER “Agnostic Front”
INDEX 00 16:03:20
INDEX 01 16:03:49
TRACK 10 AUDIO
TITLE “Politician”
PERFORMER “Agnostic Front”
INDEX 00 17:37:16
INDEX 01 17:37:61
TRACK 11 AUDIO
TITLE “Pedophile”
PERFORMER “Agnostic Front”
INDEX 00 19:45:22
INDEX 01 19:45:62
TRACK 12 AUDIO
TITLE “Alright”
PERFORMER “Agnostic Front”
INDEX 00 22:12:71
INDEX 01 22:13:42
TRACK 13 AUDIO
TITLE “Dead Yuppies”
PERFORMER “Agnostic Front”
INDEX 00 24:44:46
INDEX 01 24:45:39
TRACK 14 AUDIO
TITLE “Standing On My Own”
PERFORMER “Agnostic Front”
INDEX 00 27:32:11
INDEX 01 27:32:68


Leave a Reply

Your email address will not be published. Required fields are marked *

This site uses Akismet to reduce spam. Learn how your comment data is processed.