Agnostic Front – Cause For Alarm




Artist: Agnostic Front
Year: 1986/1999
Genre: Punk
Notes: Discogs
Add. Notes:
Cover incl.: Yes
Encoder: FLAC
Bitrate: ~900 kBit/s (44.1 kHz/16 Bit/s)
Log & Cue incl.: Yes
Size: 172,62 MB
Password: “slam” (without ” “)


All Downloads/Hosters are compatible

Download 1
Turbobit.net
Rapidgator.net
UploadEver.com
KatFile.com
UsersDrive.com
Download 2
Turbobit.net
Rapidgator.net
UploadEver.com
KatFile.com
UsersDrive.com
Download 3
Turbobit.net
Rapidgator.net
UploadEver.com
KatFile.com
UsersDrive.com

Tracklist:

1 - The Eliminator - 3:10
2 - Existence Of Hate - 2:18
3 - Time Will Come - 1:22
4 - Growing Concern - 4:10
5 - Your Mistake - 1:26
6 - Out For Blood - 2:13
7 - Toxic Shock - 2:27
8 - Bomber Zee - 2:28
9 - Public Assistance - 2:44
10 - Shoot His Load - 1:30

EAC-Log, CUE-Sheed & NFO:

Click to open spoiler
Exact Audio Copy V0.99 prebeta 5 from 4. May 2009

Отчёт EAC об извлечении, выполненном 26. июня 2010, 9:53

Agnostic Front / Cause For Alarm

Дисковод: HL-DT-STBD-RE GGW-H20L Adapter: 1 ID: 0

Режим чтения : Достоверность
Использование точного потока : Да
Отключение кэша аудио : Да
Использование указателей C2 : Нет

Коррекция смещения при чтении : 667
Способность читать области Lead-in и Lead-out : Нет
Заполнение пропущенных сэмплов тишиной : Да
Удаление блоков с тишиной в начале и конце : Нет
При вычислениях CRC использовались нулевые сэмплы : Да
Интерфейс : Встроенный Win32-интерфейс для Win NT/2000

Выходной формат : Пользовательский кодировщик
Выбранный битрейт : 768 kBit/s
Качество : Высокий
Добавление ID3-тэга : Нет
Утилита сжатия : C:\FLAC\FLAC.EXE
Дополнительные параметры : -6 -V -T “ARTIST=%a” -T “TITLE=%t” -T “ALBUM=%g” -T “DATE=%y” -T “TRACKNUMBER=%n” -T “GENRE=%m” -T “COMMENT=%e” %s -o %d

TOC извлечённого CD

Трек | Старт | Длительность | Начальный сектор | Конечный сектор
———————————————————————
1 | 0:00.00 | 3:12.25 | 0 | 14424
2 | 3:12.25 | 2:19.44 | 14425 | 24893
3 | 5:31.69 | 1:26.61 | 24894 | 31404
4 | 6:58.55 | 4:09.67 | 31405 | 50146
5 | 11:08.47 | 1:27.65 | 50147 | 56736
6 | 12:36.37 | 2:14.13 | 56737 | 66799
7 | 14:50.50 | 2:27.27 | 66800 | 77851
8 | 17:18.02 | 2:28.38 | 77852 | 88989
9 | 19:46.40 | 2:45.12 | 88990 | 101376
10 | 22:31.52 | 1:30.30 | 101377 | 108156

Характеристики диапазона извлечения и сообщения об ошибках

Выбранный диапазон

Имя файла C:\Agnostic Front – Cause For Alarm.wav

Пиковый уровень 100.0 %
Качество диапазона 100.0 %
CRC копии C77C4550
Копирование… OK

Ошибок не произошло

Конец отчёта

REM GENRE Punk
REM DATE 1985
REM DISCID 7605A20A
REM COMMENT “ExactAudioCopy v0.99pb5”
PERFORMER “Agnostic Front”
TITLE “Cause For Alarm”
FILE “Agnostic Front – Cause For Alarm.flac” WAVE
TRACK 01 AUDIO
TITLE “The Eliminator”
PERFORMER “Agnostic Front”
INDEX 01 00:00:00
TRACK 02 AUDIO
TITLE “Existence Of Hate”
PERFORMER “Agnostic Front”
INDEX 00 03:11:34
INDEX 01 03:12:25
TRACK 03 AUDIO
TITLE “Time Will Come”
PERFORMER “Agnostic Front”
INDEX 00 05:31:22
INDEX 01 05:31:69
TRACK 04 AUDIO
TITLE “Growing Concern”
PERFORMER “Agnostic Front”
INDEX 00 06:55:40
INDEX 01 06:58:55
TRACK 05 AUDIO
TITLE “Your Mistake”
PERFORMER “Agnostic Front”
INDEX 00 11:08:10
INDEX 01 11:08:47
TRACK 06 AUDIO
TITLE “Out For Blood”
PERFORMER “Agnostic Front”
INDEX 00 12:35:12
INDEX 01 12:36:37
TRACK 07 AUDIO
TITLE “Toxic Shock”
PERFORMER “Agnostic Front”
INDEX 00 14:50:40
INDEX 01 14:50:50
TRACK 08 AUDIO
TITLE “Bomber Zee”
PERFORMER “Agnostic Front”
INDEX 00 17:17:25
INDEX 01 17:18:02
TRACK 09 AUDIO
TITLE “Public Assistance”
PERFORMER “Agnostic Front”
INDEX 00 19:46:35
INDEX 01 19:46:40
TRACK 10 AUDIO
TITLE “Shoot His Load”
PERFORMER “Agnostic Front”
INDEX 00 22:31:25
INDEX 01 22:31:52

Leave a Reply

Your email address will not be published. Required fields are marked *

This site uses Akismet to reduce spam. Learn how your comment data is processed.