Agnostic Front – Cause For Alarm / Victim In Pain




Artist: Agnostic Front
Year: 1986/1991
Genre: Hardcore
Notes: Discogs
Add. Notes:
Cover incl.: Yes
Encoder: FLAC
Bitrate: ~900 kBit/s (44.1 kHz/16 Bit/s)
Log & Cue incl.: Yes
Size: 245,64 MB
Password: “slam” (without ” “)


All Downloads/Hosters are compatible

Download 1
Turbobit.net
Rapidgator.net
UploadEver.com
KatFile.com
UsersDrive.com
Download 2
Turbobit.net
Rapidgator.net
UploadEver.com
KatFile.com
UsersDrive.com
Download 3
Turbobit.net
Rapidgator.net
UploadEver.com
KatFile.com
UsersDrive.com

Tracklist:

Cause For Alarm
1 - The Eliminator - 3:13
2 - Existence Of Hate - 2:20
3 - Time Will Come - 1:27
4 - Growing Concern - 4:12
5 - Your Mistake - 1:28
6 - Out For Blood - 2:15
7 - Toxic Shock - 2:28
8 - Bomber Zee - 2:29
9 - Public Assistance - 2:47
10 - Shoot His Load - 1:33
Victim In Pain
11 - Victim In Pain - 0:48
12 - Remind Them - 1:04
13 - Blind Justice - 1:26
14 - Last Warning - 0:46
15 - United & Strong - 1:09
16 - Power - 1:44
17 - Hiding Inside - 1:20
18 - Fascist Attitude - 2:04
19 - Society Sucker - 1:12
20 - Your Mistake - 1:34
21 - With Time - 2:15

EAC-Log, CUE-Sheed & NFO:

Click to open spoiler
Exact Audio Copy V0.99 prebeta 5 from 4. May 2009

Отчёт EAC об извлечении, выполненном 26. июня 2010, 1:48

Agnostic Front / Cause For Alarm/Victim In Pain

Дисковод: HL-DT-STBD-RE GGW-H20L Adapter: 1 ID: 0

Режим чтения : Достоверность
Использование точного потока : Да
Отключение кэша аудио : Да
Использование указателей C2 : Нет

Коррекция смещения при чтении : 667
Способность читать области Lead-in и Lead-out : Нет
Заполнение пропущенных сэмплов тишиной : Да
Удаление блоков с тишиной в начале и конце : Нет
При вычислениях CRC использовались нулевые сэмплы : Да
Интерфейс : Встроенный Win32-интерфейс для Win NT/2000

Выходной формат : Пользовательский кодировщик
Выбранный битрейт : 768 kBit/s
Качество : Высокий
Добавление ID3-тэга : Нет
Утилита сжатия : C:\FLAC\FLAC.EXE
Дополнительные параметры : -6 -V -T “ARTIST=%a” -T “TITLE=%t” -T “ALBUM=%g” -T “DATE=%y” -T “TRACKNUMBER=%n” -T “GENRE=%m” -T “COMMENT=%e” %s -o %d

TOC извлечённого CD

Трек | Старт | Длительность | Начальный сектор | Конечный сектор
———————————————————————
1 | 0:00.50 | 3:13.02 | 50 | 14526
2 | 3:13.52 | 2:20.55 | 14527 | 25081
3 | 5:34.32 | 1:27.03 | 25082 | 31609
4 | 7:01.35 | 4:12.02 | 31610 | 50511
5 | 11:13.37 | 1:28.03 | 50512 | 57114
6 | 12:41.40 | 2:15.65 | 57115 | 67304
7 | 14:57.30 | 2:28.50 | 67305 | 78454
8 | 17:26.05 | 2:29.49 | 78455 | 89678
9 | 19:55.54 | 2:47.43 | 89679 | 102246
10 | 22:43.22 | 1:33.38 | 102247 | 109259
11 | 24:16.60 | 0:48.45 | 109260 | 112904
12 | 25:05.30 | 1:04.37 | 112905 | 117741
13 | 26:09.67 | 1:26.18 | 117742 | 124209
14 | 27:36.10 | 0:46.52 | 124210 | 127711
15 | 28:22.62 | 1:09.30 | 127712 | 132916
16 | 29:32.17 | 1:44.43 | 132917 | 140759
17 | 31:16.60 | 1:20.70 | 140760 | 146829
18 | 32:37.55 | 2:04.00 | 146830 | 156129
19 | 34:41.55 | 1:12.52 | 156130 | 161581
20 | 35:54.32 | 1:34.30 | 161582 | 168661
21 | 37:28.62 | 2:15.38 | 168662 | 178824

Характеристики диапазона извлечения и сообщения об ошибках

Выбранный диапазон

Имя файла C:\Agnostic Front – Cause For Alarm Victim In Pain.wav

Пиковый уровень 91.7 %
Качество диапазона 100.0 %
CRC копии 889CAB20
Копирование… OK

Ошибок не произошло

Конец отчёта

REM GENRE Hardcore
REM DATE 1986
REM DISCID 45095015
REM COMMENT “ExactAudioCopy v0.99pb5”
PERFORMER “Agnostic Front”
TITLE “Cause For Alarm/Victim In Pain”
FILE “Agnostic Front – Cause For Alarm Victim In Pain.flac” WAVE
TRACK 01 AUDIO
TITLE “The Eliminator”
PERFORMER “Agnostic Front”
INDEX 00 00:00:00
INDEX 01 00:00:50
TRACK 02 AUDIO
TITLE “Existence of Hate”
PERFORMER “Agnostic Front”
INDEX 00 03:13:07
INDEX 01 03:13:52
TRACK 03 AUDIO
TITLE “Time Will Come”
PERFORMER “Agnostic Front”
INDEX 00 05:33:40
INDEX 01 05:34:32
TRACK 04 AUDIO
TITLE “Growing Concern”
PERFORMER “Agnostic Front”
INDEX 00 07:00:62
INDEX 01 07:01:35
TRACK 05 AUDIO
TITLE “Your Mistake”
PERFORMER “Agnostic Front”
INDEX 00 11:12:60
INDEX 01 11:13:37
TRACK 06 AUDIO
TITLE “Out For Blood”
PERFORMER “Agnostic Front”
INDEX 00 12:40:62
INDEX 01 12:41:40
TRACK 07 AUDIO
TITLE “Toxic Shock”
PERFORMER “Agnostic Front”
INDEX 00 14:56:57
INDEX 01 14:57:30
TRACK 08 AUDIO
TITLE “Bomber Zee”
PERFORMER “Agnostic Front”
INDEX 00 17:25:00
INDEX 01 17:26:05
TRACK 09 AUDIO
TITLE “Public assistance”
PERFORMER “Agnostic Front”
INDEX 00 19:55:50
INDEX 01 19:55:54
TRACK 10 AUDIO
TITLE “Shoot His Load”
PERFORMER “Agnostic Front”
INDEX 00 22:42:37
INDEX 01 22:43:22
TRACK 11 AUDIO
TITLE “Victim In Pain”
PERFORMER “Agnostic Front”
INDEX 00 24:15:57
INDEX 01 24:16:60
TRACK 12 AUDIO
TITLE “Remind Them”
PERFORMER “Agnostic Front”
INDEX 00 25:04:72
INDEX 01 25:05:30
TRACK 13 AUDIO
TITLE “Blind Justice”
PERFORMER “Agnostic Front”
INDEX 00 26:09:32
INDEX 01 26:09:67
TRACK 14 AUDIO
TITLE “Last Warning”
PERFORMER “Agnostic Front”
INDEX 00 27:35:02
INDEX 01 27:36:10
TRACK 15 AUDIO
TITLE “United & Strong”
PERFORMER “Agnostic Front”
INDEX 00 28:22:32
INDEX 01 28:22:62
TRACK 16 AUDIO
TITLE “Power”
PERFORMER “Agnostic Front”
INDEX 00 29:31:65
INDEX 01 29:32:17
TRACK 17 AUDIO
TITLE “Hiding Inside”
PERFORMER “Agnostic Front”
INDEX 00 31:16:27
INDEX 01 31:16:60
TRACK 18 AUDIO
TITLE “Fascist Attitudes”
PERFORMER “Agnostic Front”
INDEX 00 32:36:72
INDEX 01 32:37:55
TRACK 19 AUDIO
TITLE “Society Sucker”
PERFORMER “Agnostic Front”
INDEX 00 34:41:10
INDEX 01 34:41:55
TRACK 20 AUDIO
TITLE “Your Mistake”
PERFORMER “Agnostic Front”
INDEX 00 35:53:62
INDEX 01 35:54:32
TRACK 21 AUDIO
TITLE “With Time”
PERFORMER “Agnostic Front”
INDEX 00 37:28:25
INDEX 01 37:28:62


Leave a Reply

Your email address will not be published. Required fields are marked *

This site uses Akismet to reduce spam. Learn how your comment data is processed.