Agnostic Front – Cause For Alarm , Liberty And Justice For




Artist: Agnostic Front
Year: 1991
Genre: Punk
Notes: Discogs
Add. Notes:
Cover incl.: Yes
Encoder: FLAC
Bitrate: ~900 kBit/s (44.1 kHz/16 Bit/s)
Log & Cue incl.: Yes
Size: 341,09 MB
Password: “slam” (without ” “)


All Downloads/Hosters are compatible

Download 1
Turbobit.net
Rapidgator.net
KatFile.com
UsersDrive.com
CloudShare.to
Download 2
Turbobit.net
Rapidgator.net
KatFile.com
UsersDrive.com
CloudShare.to
Download 3
Turbobit.net
Rapidgator.net
KatFile.com
UsersDrive.com
CloudShare.to

Tracklist:

Cause For Alarm
1 - The Eliminator - 
2 - Existence Of Hate - 
3 - Time Will Come - 
4 - Growing Concern - 
5 - Your Mistake - 
6 - Out For Blood - 
7 - Toxic Shock - 
8 - Bomber Zee - 
9 - Public Assistance - 
10 - Shoot His Load - 
Liberty And Justice For ...
11 - Liberty & Justice - 
12 - Crucial Moment - 
13 - Strength - 
14 - Genesis - 
15 - Anthem - 
16 - Another Side - 
17 - It Happened Yesterday - 
18 - Lost Land - 
19 - Hypocrisy - 
20 - Crucified - 
21 - Censored

EAC-Log, CUE-Sheed & NFO:

Click to open spoiler
Exact Audio Copy V1.0 beta 1 from 15. November 2010

EAC extraction logfile from 26. April 2011, 21:01

Agnostic Front / Cause For Alarm / Liberty And Justice For…

Used drive : HL-DT-STDVD-ROM GDR8162B Adapter: 1 ID: 0

Read mode : Secure
Utilize accurate stream : Yes
Defeat audio cache : Yes
Make use of C2 pointers : No

Read offset correction : 102
Overread into Lead-In and Lead-Out : No
Fill up missing offset samples with silence : Yes
Delete leading and trailing silent blocks : No
Null samples used in CRC calculations : Yes
Used interface : Native Win32 interface for Win NT & 2000

Used output format : User Defined Encoder
Selected bitrate : 768 kBit/s
Quality : High
Add ID3 tag : No
Command line compressor : C:\FLAC.EXE
Additional command line options : -6 -V -T “ARTIST=%a” -T “TITLE=%t” -T “ALBUM=%g” -T “DATE=%y” -T “TRACKNUMBER=%n” -T “GENRE=%m” -T “COMMENT=%e” %j–picture=”%i”%j %s -o %d

TOC of the extracted CD

Track | Start | Length | Start sector | End sector
———————————————————
1 | 0:00.33 | 3:12.07 | 33 | 14439
2 | 3:12.40 | 2:19.30 | 14440 | 24894
3 | 5:31.70 | 1:26.40 | 24895 | 31384
4 | 6:58.35 | 4:09.43 | 31385 | 50102
5 | 11:08.03 | 1:28.30 | 50103 | 56732
6 | 12:36.33 | 2:13.67 | 56733 | 66774
7 | 14:50.25 | 2:27.15 | 66775 | 77814
8 | 17:17.40 | 2:28.00 | 77815 | 88914
9 | 19:45.40 | 2:44.73 | 88915 | 101287
10 | 22:30.38 | 1:32.25 | 101288 | 108212
11 | 24:02.63 | 2:55.47 | 108213 | 121384
12 | 26:58.35 | 1:08.38 | 121385 | 126522
13 | 28:06.73 | 2:43.42 | 126523 | 138789
14 | 30:50.40 | 1:36.73 | 138790 | 146062
15 | 32:27.38 | 2:51.72 | 146063 | 158959
16 | 35:19.35 | 2:51.50 | 158960 | 171834
17 | 38:11.10 | 2:28.60 | 171835 | 182994
18 | 40:39.70 | 1:59.38 | 182995 | 191957
19 | 42:39.33 | 2:47.27 | 191958 | 204509
20 | 45:26.60 | 2:28.15 | 204510 | 215624
21 | 47:55.00 | 2:00.08 | 215625 | 224632

Range status and errors

Selected range

Filename C:\Agnostic Front – Cause For Alarm , Liberty And Justice For….wav

Peak level 89.5 %
Extraction speed 0.3 X
Range quality 100.0 %
Copy CRC 1F6F3799
Copy OK

No errors occurred

AccurateRip summary

Track 1 accurately ripped (confidence 3) [80E7E87E]
Track 2 accurately ripped (confidence 3) [90BB56EE]
Track 3 accurately ripped (confidence 3) [5B246F82]
Track 4 accurately ripped (confidence 3) [99ED6286]
Track 5 accurately ripped (confidence 3) [BA4C3D88]
Track 6 accurately ripped (confidence 3) [42AE68C4]
Track 7 accurately ripped (confidence 3) [DF33C277]
Track 8 accurately ripped (confidence 3) [C6FCDB0B]
Track 9 accurately ripped (confidence 3) [274B0E96]
Track 10 accurately ripped (confidence 3) [1431FC03]
Track 11 accurately ripped (confidence 3) [6370BB27]
Track 12 accurately ripped (confidence 3) [48C5B9FA]
Track 13 accurately ripped (confidence 3) [74715FB1]
Track 14 accurately ripped (confidence 3) [26E42C95]
Track 15 accurately ripped (confidence 3) [4EACEB6F]
Track 16 accurately ripped (confidence 3) [CF2E1315]
Track 17 accurately ripped (confidence 3) [5E2DD4DA]
Track 18 accurately ripped (confidence 3) [CA1162C0]
Track 19 accurately ripped (confidence 3) [D50CC0BE]
Track 20 accurately ripped (confidence 3) [654AD1AB]
Track 21 accurately ripped (confidence 3) [5635A5E0]

All tracks accurately ripped

End of status report

==== Log checksum 4D26600F616D314BCFF035CB281B6D61CD849B5920FE1C0515CDD13BAC04FB8B ====

REM GENRE Hardcore
REM DATE 1991
REM DISCID 2B0BB315
REM COMMENT “ExactAudioCopy v1.0b1”
PERFORMER “Agnostic Front”
TITLE “Cause For Alarm / Liberty And Justice For…”
FILE “Agnostic Front – Cause For Alarm , Liberty And Justice For….flac” WAVE
TRACK 01 AUDIO
TITLE “The Eliminator”
PERFORMER “Agnostic Front”
INDEX 00 00:00:00
INDEX 01 00:00:33
TRACK 02 AUDIO
TITLE “Existence Of Hate”
PERFORMER “Agnostic Front”
INDEX 01 03:12:40
TRACK 03 AUDIO
TITLE “Time Will Come”
PERFORMER “Agnostic Front”
INDEX 01 05:31:70
TRACK 04 AUDIO
TITLE “Growing Concern”
PERFORMER “Agnostic Front”
INDEX 00 06:56:43
INDEX 01 06:58:35
TRACK 05 AUDIO
TITLE “Your Mistake”
PERFORMER “Agnostic Front”
INDEX 01 11:08:03
TRACK 06 AUDIO
TITLE “Out For Blood”
PERFORMER “Agnostic Front”
INDEX 00 12:35:08
INDEX 01 12:36:33
TRACK 07 AUDIO
TITLE “Toxic Shock”
PERFORMER “Agnostic Front”
INDEX 01 14:50:25
TRACK 08 AUDIO
TITLE “Bomber Zee”
PERFORMER “Agnostic Front”
INDEX 01 17:17:40
TRACK 09 AUDIO
TITLE “Public Assistance”
PERFORMER “Agnostic Front”
INDEX 01 19:45:40
TRACK 10 AUDIO
TITLE “Shoot His Load”
PERFORMER “Agnostic Front”
INDEX 01 22:30:38
TRACK 11 AUDIO
TITLE “Liberty & Justice”
PERFORMER “Agnostic Front”
INDEX 00 24:01:40
INDEX 01 24:02:63
TRACK 12 AUDIO
TITLE “Crucial Moment”
PERFORMER “Agnostic Front”
INDEX 01 26:58:35
TRACK 13 AUDIO
TITLE “Strength”
PERFORMER “Agnostic Front”
INDEX 01 28:06:73
TRACK 14 AUDIO
TITLE “Genesis”
PERFORMER “Agnostic Front”
INDEX 01 30:50:40
TRACK 15 AUDIO
TITLE “Anthem”
PERFORMER “Agnostic Front”
INDEX 01 32:27:38
TRACK 16 AUDIO
TITLE “Another Side”
PERFORMER “Agnostic Front”
INDEX 00 35:18:18
INDEX 01 35:19:35
TRACK 17 AUDIO
TITLE “It Happened Yesterday”
PERFORMER “Agnostic Front”
INDEX 01 38:11:10
TRACK 18 AUDIO
TITLE “Lost Land”
PERFORMER “Agnostic Front”
INDEX 01 40:39:70
TRACK 19 AUDIO
TITLE “Hypocrisy”
PERFORMER “Agnostic Front”
INDEX 01 42:39:33
TRACK 20 AUDIO
TITLE “Crucified”
PERFORMER “Agnostic Front”
INDEX 01 45:26:60
TRACK 21 AUDIO
TITLE “Censored”
PERFORMER “Agnostic Front”
INDEX 01 47:55:00

Leave a Reply

Your email address will not be published. Required fields are marked *

This site uses Akismet to reduce spam. Learn how your comment data is processed.