Agnostic Front – Another Voice




[Total: 0    Average: 0/5]

Artist: Agnostic Front
Year: 2004
Genre: Rock
Notes: Discogs
Add. Notes:
Cover incl.: Yes
Encoder: FLAC
Bitrate: ~1100 kBit/s (44.1 kHz/16 Bit/s)
Log & Cue incl.: Yes
Size: 221,36 MB
Password: “slam” (without ” “)


All Downloads/Hosters are compatible

Download 1
Share-online.biz
Rapidgator.net
UploadEver.com
KatFile.com
UsersDrive.com
Download 2
Share-online.biz
Rapidgator.net
UploadEver.com
KatFile.com
UsersDrive.com
Download 3
Share-online.biz
Rapidgator.net
UploadEver.com
KatFile.com
UsersDrive.com

Tracklist:

1 - Still Here - 2:25
2 - All Is Not Forgotten - 1:54
3 - Fall Of The Parasite - 1:16
4 - Pride, Faith, Respect - 1:36
5 - So Pure To Me - 2:00
6 - Dedication - 2:46
7 - Peace - 2:19
8 - Take Me Back - 1:35
9 - Hardcore! (The Definition) - 2:19
10 - Casuality Of The Times - 2:05
11 - No One Hears You - 1:38
12 - I Live It - 2:11
13 - It's For Life - 1:37
14 - Another Voice - 4:32
Video - Peace - 2:18

EAC-Log, CUE-Sheed & NFO:

Click to open spoiler
Exact Audio Copy V0.99 prebeta 5 from 4. May 2009

Отчёт EAC об извлечении, выполненном 26. июня 2010, 15:32

Agnostic Front / Another Voice

Дисковод: HL-DT-STBD-RE GGW-H20L Adapter: 1 ID: 0

Режим чтения : Достоверность
Использование точного потока : Да
Отключение кэша аудио : Да
Использование указателей C2 : Нет

Коррекция смещения при чтении : 667
Способность читать области Lead-in и Lead-out : Нет
Заполнение пропущенных сэмплов тишиной : Да
Удаление блоков с тишиной в начале и конце : Нет
При вычислениях CRC использовались нулевые сэмплы : Да
Интерфейс : Встроенный Win32-интерфейс для Win NT/2000

Выходной формат : Пользовательский кодировщик
Выбранный битрейт : 768 kBit/s
Качество : Высокий
Добавление ID3-тэга : Нет
Утилита сжатия : C:\FLAC.EXE
Дополнительные параметры : -6 -V -T “ARTIST=%a” -T “TITLE=%t” -T “ALBUM=%g” -T “DATE=%y” -T “TRACKNUMBER=%n” -T “GENRE=%m” -T “COMMENT=%e” %s -o %d

TOC извлечённого CD

Трек | Старт | Длительность | Начальный сектор | Конечный сектор
———————————————————————
1 | 0:00.00 | 2:25.09 | 0 | 10883
2 | 2:25.09 | 1:54.12 | 10884 | 19445
3 | 4:19.21 | 1:16.17 | 19446 | 25162
4 | 5:35.38 | 1:36.21 | 25163 | 32383
5 | 7:11.59 | 2:00.73 | 32384 | 41456
6 | 9:12.57 | 2:46.18 | 41457 | 53924
7 | 11:59.00 | 2:19.58 | 53925 | 64407
8 | 14:18.58 | 1:35.05 | 64408 | 71537
9 | 15:53.63 | 2:19.27 | 71538 | 81989
10 | 18:13.15 | 2:05.33 | 81990 | 91397
11 | 20:18.48 | 1:38.09 | 91398 | 98756
12 | 21:56.57 | 2:11.06 | 98757 | 108587
13 | 24:07.63 | 1:37.06 | 108588 | 115868
14 | 25:44.69 | 2:00.05 | 115869 | 124873
15 | 30:16.74 | 5:20.16 | 136274 | 160289

Характеристики диапазона извлечения и сообщения об ошибках

Выбранный диапазон

Имя файла C:\Agnostic Front – Another Voice.wav

Пиковый уровень 98.9 %
Качество диапазона 99.9 %
CRC копии 7E12406C
Копирование… OK

Ошибок не произошло

Конец отчёта

REM GENRE Hardcore
REM DATE 2004
REM DISCID BC08590F
REM COMMENT “ExactAudioCopy v0.99pb5”
PERFORMER “Agnostic Front”
TITLE “Another Voice”
FILE “Agnostic Front – Another Voice.flac” WAVE
TRACK 01 AUDIO
TITLE “Still Here”
PERFORMER “Agnostic Front”
INDEX 01 00:00:00
TRACK 02 AUDIO
TITLE “All Is Not Forgotten”
PERFORMER “Agnostic Front”
INDEX 01 02:25:09
TRACK 03 AUDIO
TITLE “Fall Of The Parasite”
PERFORMER “Agnostic Front”
INDEX 01 04:19:21
TRACK 04 AUDIO
TITLE “Pride. Faith. Respect”
PERFORMER “Agnostic Front”
INDEX 01 05:35:38
TRACK 05 AUDIO
TITLE “So Pure To Me”
PERFORMER “Agnostic Front”
INDEX 01 07:11:59
TRACK 06 AUDIO
TITLE “Dedication”
PERFORMER “Agnostic Front”
INDEX 01 09:12:57
TRACK 07 AUDIO
TITLE “Peace”
PERFORMER “Agnostic Front”
INDEX 01 11:59:00
TRACK 08 AUDIO
TITLE “Take Me Back”
PERFORMER “Agnostic Front”
INDEX 01 14:18:58
TRACK 09 AUDIO
TITLE “Hardcore! (The Definition)”
PERFORMER “Agnostic Front”
INDEX 01 15:53:63
TRACK 10 AUDIO
TITLE “Casualty Of The Times”
PERFORMER “Agnostic Front”
INDEX 01 18:13:15
TRACK 11 AUDIO
TITLE “No One Hears You”
PERFORMER “Agnostic Front”
INDEX 01 20:18:48
TRACK 12 AUDIO
TITLE “I Live It”
PERFORMER “Agnostic Front”
INDEX 01 21:56:57
TRACK 13 AUDIO
TITLE “It’s For Life”
PERFORMER “Agnostic Front”
INDEX 01 24:07:63
TRACK 14 AUDIO
TITLE “Another Voice”
PERFORMER “Agnostic Front”
INDEX 01 25:44:69

Spread the Download

Leave a Reply

Your email address will not be published. Required fields are marked *

Enter the text from the image below
 

This site uses Akismet to reduce spam. Learn how your comment data is processed.