Aerosmith – Young Lust: The Aerosmith Anthology




Artist: Aerosmith
Year: 2001
Genre: Rock
Notes: Discogs
Add. Notes:
Cover incl.: Yes
Encoder: FLAC
Bitrate: ~1000 kBit/s (44.1 kHz/16 Bit/s)
Log & Cue incl.: Yes
Size: 1245,16 MB
Password: “slam” (without ” “)


All Downloads/Hosters are compatible

Download 1
Turbobit.net
Rapidgator.net
UploadEver.com
KatFile.com
UsersDrive.com
Download 2
Turbobit.net
Rapidgator.net
UploadEver.com
KatFile.com
UsersDrive.com
Download 3
Turbobit.net
Rapidgator.net
UploadEver.com
KatFile.com
UsersDrive.com

Tracklist:

Left Disc
1-1 - Let The Music Do The Talking - 3:46
1-2 - My Fist Your Face - 4:22
1-3 - Shame On You - 3:20
1-4 - Heart's Done Time - 4:42
1-5 - Rag Doll - 4:25
1-6 - Dude (Looks Like A Lady) - 4:25
1-7 - Angel - 5:07
1-8 - Hangman Jury - 5:33
1-9 - Permanent Vacation - 4:49
1-10 - Young Lust - 4:19
1-11 - The Other Side - 4:06
1-12 - What It Takes - 5:12
1-13 - Monkey On My Back - 3:57
1-14 - Love In An Elevator - 5:22
1-15 - Janie's Got A Gun - 5:27
1-16 - Ain't Enough - 4:58
1-17 - Walk This Way - 5:11
Right Disc
2-1 - Eat The Rich - 4:32
2-2 - Love Me Two Times - 3:15
2-3 - Head First - 4:42
2-4 - Livin' On The Edge (Acoustic Version) - 5:37
2-5 - Don't Stop - 4:02
2-6 - Can't Stop Messin' - 4:33
2-7 - Amazing (Orchestral Version) - 5:33
2-8 - Cryin' - 5:05
2-9 - Crazy - 5:11
2-10 - Shut Up And Dance - 4:49
2-11 - Deuces Are Wild - 3:32
2-12 - Walk On Water - 4:53
2-13 - Blind Man - 3:56
2-14 - Falling In Love (Is Hard On The Knees) (Live) - 
3:25
2-15 - Dream On (Live) - 4:45
2-16 - Hole In My Soul (Live) - 5:48
2-17 - Sweet Emotion (Live) - 5:51

EAC-Log, CUE-Sheed & NFO:

Click to open spoiler
Exact Audio Copy V1.0 beta 3 from 29. August 2011

EAC extraction logfile from 23. September 2013, 23:24

Aerosmith / Young Lust: The Aerosmith Anthology

Used drive : Optiarc DVD-ROM DDU1675S Adapter: 3 ID: 0

Read mode : Secure
Utilize accurate stream : Yes
Defeat audio cache : Yes
Make use of C2 pointers : No

Read offset correction : 6
Overread into Lead-In and Lead-Out : No
Fill up missing offset samples with silence : Yes
Delete leading and trailing silent blocks : No
Null samples used in CRC calculations : Yes
Used interface : Native Win32 interface for Win NT & 2000

Used output format : User Defined Encoder
Selected bitrate : 1024 kBit/s
Quality : High
Add ID3 tag : No
Command line compressor : C:\Program Files (x86)\Exact Audio Copy\Flac\flac.exe
Additional command line options : -V -8 -T “Date=%year%” -T “Genre=%genre%” %source%

TOC of the extracted CD

Track | Start | Length | Start sector | End sector
———————————————————
1 | 0:00.00 | 3:45.73 | 0 | 16947
2 | 3:45.73 | 4:21.57 | 16948 | 36579
3 | 8:07.55 | 3:20.13 | 36580 | 51592
4 | 11:27.68 | 4:41.42 | 51593 | 72709
5 | 16:09.35 | 4:24.45 | 72710 | 92554
6 | 20:34.05 | 4:23.42 | 92555 | 112321
7 | 24:57.47 | 5:06.36 | 112322 | 135307
8 | 30:04.08 | 5:33.12 | 135308 | 160294
9 | 35:37.20 | 4:48.65 | 160295 | 181959
10 | 40:26.10 | 4:19.23 | 181960 | 201407
11 | 44:45.33 | 4:06.12 | 201408 | 219869
12 | 48:51.45 | 5:10.63 | 219870 | 243182
13 | 54:02.33 | 3:57.15 | 243183 | 260972
14 | 57:59.48 | 5:21.55 | 260973 | 285102
15 | 63:21.28 | 5:27.02 | 285103 | 309629
16 | 68:48.30 | 4:57.60 | 309630 | 331964
17 | 73:46.15 | 5:11.40 | 331965 | 355329

Range status and errors

Selected range

Filename F:\Torrent\Aerosmith – Young Lust (The Aerosmith Anthology) (Geffen, 493 119-2) (2001)\CD-1 (Left disc)\Aerosmith – Young Lust (The Aerosmith Anthology) (CD-1).wav

Peak level 98.8 %
Extraction speed 9.6 X
Range quality 100.0 %
Test CRC B19E0CD4
Copy CRC B19E0CD4
Copy OK

No errors occurred

AccurateRip summary

Track 1 accurately ripped (confidence 69) [EFDAECBF] (AR v2)
Track 2 accurately ripped (confidence 68) [B8102602] (AR v2)
Track 3 accurately ripped (confidence 69) [7866A35A] (AR v2)
Track 4 accurately ripped (confidence 69) [B77BD36E] (AR v2)
Track 5 accurately ripped (confidence 67) [DEF27E2A] (AR v2)
Track 6 accurately ripped (confidence 67) [25769032] (AR v2)
Track 7 accurately ripped (confidence 68) [EF698603] (AR v2)
Track 8 accurately ripped (confidence 68) [BC998872] (AR v2)
Track 9 accurately ripped (confidence 68) [32E68109] (AR v2)
Track 10 accurately ripped (confidence 69) [A6DA7790] (AR v2)
Track 11 accurately ripped (confidence 67) [01190B78] (AR v2)
Track 12 accurately ripped (confidence 69) [DDED86AB] (AR v2)
Track 13 accurately ripped (confidence 69) [72CC0515] (AR v2)
Track 14 accurately ripped (confidence 67) [87E2F337] (AR v2)
Track 15 accurately ripped (confidence 65) [1E06A2A3] (AR v2)
Track 16 accurately ripped (confidence 65) [DDF533EF] (AR v2)
Track 17 accurately ripped (confidence 62) [9872C219] (AR v2)

All tracks accurately ripped

End of status report

—- CUETools DB Plugin V2.1.4

[CTDB TOCID: DvYeAlRtkc9IyaSmZ3QePM9A6HE-] found
Submit result: DvYeAlRtkc9IyaSmZ3QePM9A6HE- has been confirmed
Track | CTDB Status
1 | (41/43) Accurately ripped, or (1/43) differs in 12 samples @00:00:15-00:00:16
2 | (42/43) Accurately ripped
3 | (43/43) Accurately ripped
4 | (41/43) Accurately ripped
5 | (41/43) Accurately ripped
6 | (43/43) Accurately ripped
7 | (43/43) Accurately ripped
8 | (41/43) Accurately ripped
9 | (42/43) Accurately ripped
10 | (41/43) Accurately ripped
11 | (42/43) Accurately ripped
12 | (41/43) Accurately ripped
13 | (42/43) Accurately ripped
14 | (41/43) Accurately ripped
15 | (41/43) Accurately ripped
16 | (40/43) Accurately ripped
17 | (39/43) Accurately ripped

==== Log checksum B4BEBF3A8A68B5C6C3EB22BACA6CA1EE4FBAFEE0211C649F28D6C3EFAE02D589 ====

Exact Audio Copy V1.0 beta 3 from 29. August 2011

EAC extraction logfile from 23. September 2013, 23:49

Aerosmith / Young Lust: The Aerosmith Anthology

Used drive : Optiarc DVD-ROM DDU1675S Adapter: 3 ID: 0

Read mode : Secure
Utilize accurate stream : Yes
Defeat audio cache : Yes
Make use of C2 pointers : No

Read offset correction : 6
Overread into Lead-In and Lead-Out : No
Fill up missing offset samples with silence : Yes
Delete leading and trailing silent blocks : No
Null samples used in CRC calculations : Yes
Used interface : Native Win32 interface for Win NT & 2000

Used output format : User Defined Encoder
Selected bitrate : 1024 kBit/s
Quality : High
Add ID3 tag : No
Command line compressor : C:\Program Files (x86)\Exact Audio Copy\Flac\flac.exe
Additional command line options : -V -8 -T “Date=%year%” -T “Genre=%genre%” %source%

TOC of the extracted CD

Track | Start | Length | Start sector | End sector
———————————————————
1 | 0:00.00 | 4:32.65 | 0 | 20464
2 | 4:32.65 | 3:15.18 | 20465 | 35107
3 | 7:48.08 | 4:42.52 | 35108 | 56309
4 | 12:30.60 | 5:37.50 | 56310 | 81634
5 | 18:08.35 | 4:02.70 | 81635 | 99854
6 | 22:11.30 | 4:34.53 | 99855 | 120457
7 | 26:46.08 | 5:34.47 | 120458 | 145554
8 | 32:20.55 | 5:08.20 | 145555 | 168674
9 | 37:29.00 | 5:16.55 | 168675 | 192429
10 | 42:45.55 | 4:50.53 | 192430 | 214232
11 | 47:36.33 | 3:32.50 | 214233 | 230182
12 | 51:09.08 | 4:53.60 | 230183 | 252217
13 | 56:02.68 | 3:57.25 | 252218 | 270017
14 | 60:00.18 | 3:24.67 | 270018 | 285384
15 | 63:25.10 | 4:53.20 | 285385 | 307379
16 | 68:18.30 | 5:37.58 | 307380 | 332712
17 | 73:56.13 | 5:52.30 | 332713 | 359142

Range status and errors

Selected range

Filename F:\Torrent\Aerosmith – Young Lust (The Aerosmith Anthology) (Geffen, 493 119-2) (2001)\CD-2 (Right disc)\Aerosmith – Young Lust (The Aerosmith Anthology) (CD-2).wav

Peak level 98.8 %
Extraction speed 9.6 X
Range quality 100.0 %
Test CRC 8964B4E0
Copy CRC 8964B4E0
Copy OK

No errors occurred

AccurateRip summary

Track 1 accurately ripped (confidence 67) [4FE56251] (AR v2)
Track 2 accurately ripped (confidence 68) [C96E5594] (AR v2)
Track 3 accurately ripped (confidence 69) [35CB497C] (AR v2)
Track 4 accurately ripped (confidence 69) [219E0B3C] (AR v2)
Track 5 accurately ripped (confidence 69) [7D2F13F1] (AR v2)
Track 6 accurately ripped (confidence 67) [05EF4222] (AR v2)
Track 7 accurately ripped (confidence 69) [7FF4D519] (AR v2)
Track 8 accurately ripped (confidence 68) [A6FDD9CD] (AR v2)
Track 9 accurately ripped (confidence 68) [9A7847F3] (AR v2)
Track 10 accurately ripped (confidence 67) [87CD3032] (AR v2)
Track 11 accurately ripped (confidence 68) [A46D646D] (AR v2)
Track 12 accurately ripped (confidence 67) [70008580] (AR v2)
Track 13 accurately ripped (confidence 67) [A5FA22B1] (AR v2)
Track 14 accurately ripped (confidence 65) [3119DA28] (AR v2)
Track 15 accurately ripped (confidence 68) [22EE1378] (AR v2)
Track 16 accurately ripped (confidence 67) [F8C786D4] (AR v2)
Track 17 accurately ripped (confidence 65) [53E6484B] (AR v2)

All tracks accurately ripped

End of status report

—- CUETools DB Plugin V2.1.4

[CTDB TOCID: YcippwmGDl3VAZ5tkGiebyGZ1iw-] found
Submit result: YcippwmGDl3VAZ5tkGiebyGZ1iw- has been confirmed
Track | CTDB Status
1 | (36/37) Accurately ripped
2 | (36/37) Accurately ripped
3 | (36/37) Accurately ripped
4 | (36/37) Accurately ripped
5 | (35/37) Accurately ripped
6 | (34/37) Accurately ripped
7 | (36/37) Accurately ripped
8 | (35/37) Accurately ripped
9 | (36/37) Accurately ripped
10 | (35/37) Accurately ripped
11 | (36/37) Accurately ripped
12 | (36/37) Accurately ripped
13 | (35/37) Accurately ripped
14 | (36/37) Accurately ripped
15 | (35/37) Accurately ripped
16 | (35/37) Accurately ripped
17 | (35/37) Accurately ripped

==== Log checksum 668450085F1446D8A6BD70F42C12F75A91D623BCE4D4CBD5191A6BED0FB89680 ====

REM GENRE “Hard Rock”
REM DATE 2001
REM DISCID 09128111
REM COMMENT “ExactAudioCopy v1.0b3”
PERFORMER “Aerosmith”
TITLE “Young Lust: The Aerosmith Anthology [E.U. 493 119-2] (CD1)”
FILE “Aerosmith – Young Lust (The Aerosmith Anthology) (CD-1).flac” WAVE
TRACK 01 AUDIO
TITLE “Let The Music Do The Talking”
PERFORMER “Aerosmith”
INDEX 01 00:00:00
TRACK 02 AUDIO
TITLE “My Fist Your Face”
PERFORMER “Aerosmith”
INDEX 01 03:45:73
TRACK 03 AUDIO
TITLE “Shame On You”
PERFORMER “Aerosmith”
INDEX 01 08:07:55
TRACK 04 AUDIO
TITLE “Heart’s Done Time”
PERFORMER “Aerosmith”
INDEX 01 11:27:68
TRACK 05 AUDIO
TITLE “Rag Doll”
PERFORMER “Aerosmith”
INDEX 01 16:09:35
TRACK 06 AUDIO
TITLE “Dude (Looks Like A Lady)”
PERFORMER “Aerosmith”
INDEX 01 20:34:05
TRACK 07 AUDIO
TITLE “Angel”
PERFORMER “Aerosmith”
INDEX 01 24:57:47
TRACK 08 AUDIO
TITLE “Hangman Jury”
PERFORMER “Aerosmith”
INDEX 01 30:04:08
TRACK 09 AUDIO
TITLE “Permanent Vacation”
PERFORMER “Aerosmith”
INDEX 01 35:37:20
TRACK 10 AUDIO
TITLE “Young Lust”
PERFORMER “Aerosmith”
INDEX 01 40:26:10
TRACK 11 AUDIO
TITLE “The Other Side”
PERFORMER “Aerosmith”
INDEX 01 44:45:33
TRACK 12 AUDIO
TITLE “What It Takes”
PERFORMER “Aerosmith”
INDEX 01 48:51:45
TRACK 13 AUDIO
TITLE “Monkey On My Back”
PERFORMER “Aerosmith”
INDEX 01 54:02:33
TRACK 14 AUDIO
TITLE “Love In An Elevator”
PERFORMER “Aerosmith”
INDEX 01 57:59:48
TRACK 15 AUDIO
TITLE “Janie’s Got A Gun”
PERFORMER “Aerosmith”
INDEX 01 63:21:28
TRACK 16 AUDIO
TITLE “Ain’t Enough”
PERFORMER “Aerosmith”
INDEX 01 68:48:30
TRACK 17 AUDIO
TITLE “Walk This Way”
PERFORMER “Aerosmith & Run.D.M.C.”
INDEX 01 73:46:15

REM GENRE “Hard Rock”
REM DATE 2001
REM DISCID E012B411
REM COMMENT “ExactAudioCopy v1.0b3”
PERFORMER “Aerosmith”
TITLE “Young Lust: The Aerosmith Anthology (CD2)”
FILE “Aerosmith – Young Lust (The Aerosmith Anthology) (CD-2).flac” WAVE
TRACK 01 AUDIO
TITLE “Eat The Rich”
PERFORMER “Aerosmith”
INDEX 01 00:00:00
TRACK 02 AUDIO
TITLE “Love Me Two Times”
PERFORMER “Aerosmith”
INDEX 01 04:32:65
TRACK 03 AUDIO
TITLE “Head First”
PERFORMER “Aerosmith”
INDEX 01 07:48:08
TRACK 04 AUDIO
TITLE “Livin’ On The Edge (Acoustic version)”
PERFORMER “Aerosmith”
INDEX 01 12:30:60
TRACK 05 AUDIO
TITLE “Don’t Stop”
PERFORMER “Aerosmith”
INDEX 01 18:08:35
TRACK 06 AUDIO
TITLE “Can’t Stop Messin'”
PERFORMER “Aerosmith”
INDEX 01 22:11:30
TRACK 07 AUDIO
TITLE “Amazing (Orchestral version)”
PERFORMER “Aerosmith”
INDEX 01 26:46:08
TRACK 08 AUDIO
TITLE “Cryin'”
PERFORMER “Aerosmith”
INDEX 01 32:20:55
TRACK 09 AUDIO
TITLE “Crazy”
PERFORMER “Aerosmith”
INDEX 01 37:29:00
TRACK 10 AUDIO
TITLE “Shut Up And Dance”
PERFORMER “Aerosmith”
INDEX 01 42:45:55
TRACK 11 AUDIO
TITLE “Deuces Are Wild”
PERFORMER “Aerosmith”
INDEX 01 47:36:33
TRACK 12 AUDIO
TITLE “Walk On Water”
PERFORMER “Aerosmith”
INDEX 01 51:09:08
TRACK 13 AUDIO
TITLE “Blind Man”
PERFORMER “Aerosmith”
INDEX 01 56:02:68
TRACK 14 AUDIO
TITLE “Falling In Love (Live)”
PERFORMER “Aerosmith”
INDEX 01 60:00:18
TRACK 15 AUDIO
TITLE “Dream On (Live)”
PERFORMER “Aerosmith”
INDEX 01 63:25:10
TRACK 16 AUDIO
TITLE “Hole In My Soul (Live)”
PERFORMER “Aerosmith”
INDEX 01 68:18:30
TRACK 17 AUDIO
TITLE “Sweet Emotion (Live)”
PERFORMER “Aerosmith”
INDEX 01 73:56:13

Leave a Reply

Your email address will not be published. Required fields are marked *

This site uses Akismet to reduce spam. Learn how your comment data is processed.