Aerosmith – Toys In The Attic




Artist: Aerosmith
Year: 1975/1988
Genre: Rock
Notes: Discogs
Add. Notes:
Cover incl.: Yes
Encoder: FLAC
Bitrate: ~900 kBit/s (44.1 kHz/16 Bit/s)
Log & Cue incl.: Yes
Size: 264,47 MB
Password: “slam” (without ” “)


All Downloads/Hosters are compatible

Download 1
Turbobit.net
Rapidgator.net
KatFile.com
UploadRar.com
Download 2
Turbobit.net
Rapidgator.net
KatFile.com
UploadRar.com

Tracklist:

1 - Toys In The Attic - 3:05
2 - Uncle Salty - 4:10
3 - Adam's Apple - 4:34
4 - Walk This Way - 3:40
5 - Big Ten Inch Record - 2:14
6 - Sweet Emotion - 4:34
7 - No More No More - 4:34
8 - Round And Round - 5:05
9 - You See Me Crying - 5:12

EAC-Log, CUE-Sheed & NFO:

Click to open spoiler
Exact Audio Copy V1.0 beta 2 from 29. April 2011

Отчёт EAC об извлечении, выполненном 14. августа 2013, 23:53

Aerosmith / Toys In The Attic

Дисковод: MATSHITADVD-RAM UJ8A0AS Adapter: 1 ID: 0

Режим чтения : Достоверность
Использование точного потока : Да
Отключение кэша аудио : Да
Использование указателей C2 : Нет

Коррекция смещения при чтении : 102
Способность читать области Lead-in и Lead-out : Нет
Заполнение пропущенных сэмплов тишиной : Да
Удаление блоков с тишиной в начале и конце : Нет
При вычислениях CRC использовались нулевые сэмплы : Да
Интерфейс : Встроенный Win32-интерфейс для Win NT/2000

Выходной формат : Пользовательский кодировщик
Выбранный битрейт : 128 kBit/s
Качество : Высокий
Добавление ID3-тега : Нет
Утилита сжатия : C:\Program Files\foobar2000\encoders\flac.exe
Дополнительные параметры : -V -8 -T “Date=%year%” -T “Genre=%genre%” %source%

TOC извлечённого CD

Трек | Старт | Длительность | Начальный сектор | Конечный сектор
———————————————————————
1 | 0:00.00 | 3:06.50 | 0 | 13999
2 | 3:06.50 | 4:10.52 | 14000 | 32801
3 | 7:17.27 | 4:34.45 | 32802 | 53396
4 | 11:51.72 | 3:41.10 | 53397 | 69981
5 | 15:33.07 | 2:14.05 | 69982 | 80036
6 | 17:47.12 | 4:34.50 | 80037 | 100636
7 | 22:21.62 | 4:34.58 | 100637 | 121244
8 | 26:56.45 | 5:03.42 | 121245 | 144011
9 | 32:00.12 | 5:11.58 | 144012 | 167394

Характеристики диапазона извлечения и сообщения об ошибках

Выбранный диапазон

Имя файла E:\Музыка\torrents\Aerosmith – Discography\Albums\Aerosmith (1975) – Toys In The Attic [USA CK 33479]\Aerosmith – Toys In The Attic.wav

Пиковый уровень 100.0 %
Скорость извлечения 1.1 X
Качество диапазона 100.0 %
CRC теста 2882DC04
CRC копии 2882DC04
Копирование… OK

Ошибок не произошло

Конец отчёта

==== Контрольная сумма отчёта F54A28AB0D485660D41EFC5145D29DEC2747CEF98F5C193A5BF4633F013B8F23 ====

REM GENRE “Hard Rock”
REM DATE 1975
REM DISCID 7808B709
REM COMMENT “ExactAudioCopy v1.0b2”
PERFORMER “Aerosmith ”
TITLE “Toys In The Attic [USA CK 33479]”
FILE “Aerosmith – Toys In The Attic.flac” WAVE
TRACK 01 AUDIO
TITLE “Toys In The Attic”
PERFORMER “Aerosmith ”
INDEX 01 00:00:00
TRACK 02 AUDIO
TITLE “Uncle Salty”
PERFORMER “Aerosmith ”
INDEX 00 03:05:07
INDEX 01 03:06:50
TRACK 03 AUDIO
TITLE “Adam’s Apple”
PERFORMER “Aerosmith ”
INDEX 00 07:15:52
INDEX 01 07:17:27
TRACK 04 AUDIO
TITLE “Walk This Way”
PERFORMER “Aerosmith ”
INDEX 00 11:50:05
INDEX 01 11:51:72
TRACK 05 AUDIO
TITLE “Big Ten Inch Record”
PERFORMER “Aerosmith ”
INDEX 00 15:32:02
INDEX 01 15:33:07
TRACK 06 AUDIO
TITLE “Sweet Emotion”
PERFORMER “Aerosmith ”
INDEX 00 17:46:37
INDEX 01 17:47:12
TRACK 07 AUDIO
TITLE “No More No More”
PERFORMER “Aerosmith ”
INDEX 01 22:21:62
TRACK 08 AUDIO
TITLE “Round And Round”
PERFORMER “Aerosmith ”
INDEX 01 26:56:45
TRACK 09 AUDIO
TITLE “You See Me Crying”
PERFORMER “Aerosmith ”
INDEX 01 32:00:12


Leave a Reply

Your email address will not be published. Required fields are marked *

This site uses Akismet to reduce spam. Learn how your comment data is processed.