Aerosmith – Rocks (Japanese Edition)




Artist: Aerosmith
Year: 1976/1988
Genre: Rock
Notes: Discogs
Add. Notes: Japanese Edition
Cover incl.: Yes
Encoder: FLAC
Bitrate: ~900 kBit/s (44.1 kHz/16 Bit/s)
Log & Cue incl.: Yes
Size: 312,9 MB
Password: “slam” (without ” “)


All Downloads/Hosters are compatible

Download 1
Turbobit.net
Rapidgator.net
KatFile.com
UploadRar.com
Download 2
Turbobit.net
Rapidgator.net
KatFile.com
UploadRar.com

Tracklist:

1 - Back In The Saddle - 4:39
2 - Last Child - 3:26
3 - Rats In The Cellar - 4:05
4 - Combination - 3:38
5 - Sick As A Dog - 4:12
6 - Nobody's Fault - 4:25
7 - Get The Lead Out - 3:41
8 - Lick And A Promise - 3:05
9 - Home Tonight - 3:16

EAC-Log, CUE-Sheed & NFO:

Click to open spoiler
Exact Audio Copy V1.0 beta 2 from 29. April 2011

Отчёт EAC об извлечении, выполненном 19. октября 2012, 23:11

Aerosmith / Rocks

Дисковод: MATSHITADVD-RAM UJ8A0AS Adapter: 0 ID: 1

Режим чтения : Достоверность
Использование точного потока : Да
Отключение кэша аудио : Да
Использование указателей C2 : Нет

Коррекция смещения при чтении : 102
Способность читать области Lead-in и Lead-out : Нет
Заполнение пропущенных сэмплов тишиной : Да
Удаление блоков с тишиной в начале и конце : Нет
При вычислениях CRC использовались нулевые сэмплы : Да
Интерфейс : Встроенный Win32-интерфейс для Win NT/2000

Выходной формат : Пользовательский кодировщик
Выбранный битрейт : 128 kBit/s
Качество : Высокий
Добавление ID3-тега : Нет
Утилита сжатия : C:\Program Files (x86)\Exact Audio Copy\Flac\flac.exe
Дополнительные параметры : -V -8 -T “Date=%year%” -T “Genre=%genre%” %source%

TOC извлечённого CD

Трек | Старт | Длительность | Начальный сектор | Конечный сектор
———————————————————————
1 | 0:00.00 | 4:39.37 | 0 | 20961
2 | 4:39.37 | 3:25.58 | 20962 | 36394
3 | 8:05.20 | 4:05.00 | 36395 | 54769
4 | 12:10.20 | 3:38.42 | 54770 | 71161
5 | 15:48.62 | 4:14.03 | 71162 | 90214
6 | 20:02.65 | 4:22.35 | 90215 | 109899
7 | 24:25.25 | 3:41.05 | 109900 | 126479
8 | 28:06.30 | 3:04.32 | 126480 | 140311
9 | 31:10.62 | 3:15.33 | 140312 | 154969

Характеристики диапазона извлечения и сообщения об ошибках

Выбранный диапазон

Имя файла F:\Музыка\torrents\Aerosmith – Discography\Albums\Aerosmith (1976) – Rocks\Aerosmith – Rocks.wav

Пиковый уровень 100.0 %
Скорость извлечения 1.1 X
Качество диапазона 100.0 %
CRC теста 66AD259D
CRC копии 66AD259D
Копирование… OK

Ошибок не произошло

Конец отчёта

==== Контрольная сумма отчёта 2F6EB32CB7C6821AE6833CE81F5694514BCA8D330AC7B0CEB91C595C10918C2F ====

REM GENRE Hard Rock
REM DATE 1976
REM DISCID 7C081209
REM COMMENT “ExactAudioCopy v1.0b2”
PERFORMER “Aerosmith”
TITLE “Rocks [Japan 25DP 5091]”
FILE “Aerosmith – Rocks.flac” WAVE
TRACK 01 AUDIO
TITLE “Back In The Saddle”
PERFORMER “Aerosmith”
INDEX 01 00:00:00
TRACK 02 AUDIO
TITLE “Last Child”
PERFORMER “Aerosmith”
INDEX 01 04:39:37
TRACK 03 AUDIO
TITLE “Rats In The Cellar”
PERFORMER “Aerosmith”
INDEX 01 08:05:20
TRACK 04 AUDIO
TITLE “Combination”
PERFORMER “Aerosmith”
INDEX 01 12:10:20
TRACK 05 AUDIO
TITLE “Sick As A Dog”
PERFORMER “Aerosmith”
INDEX 01 15:48:62
TRACK 06 AUDIO
TITLE “Nobody’s Fault”
PERFORMER “Aerosmith”
INDEX 01 20:02:65
TRACK 07 AUDIO
TITLE “Get The Lead Out”
PERFORMER “Aerosmith”
INDEX 01 24:25:25
TRACK 08 AUDIO
TITLE “Lick And A Promise”
PERFORMER “Aerosmith”
INDEX 01 28:06:30
TRACK 09 AUDIO
TITLE “Home Tonight”
PERFORMER “Aerosmith”
INDEX 01 31:10:62


Leave a Reply

Your email address will not be published. Required fields are marked *

This site uses Akismet to reduce spam. Learn how your comment data is processed.