Aerosmith – Rockin` The Joint




Artist: Aerosmith
Year: 2005
Genre: Rock
Notes: Discogs
Add. Notes:
Cover incl.: Yes
Encoder: FLAC
Bitrate: ~1000 kBit/s (44.1 kHz/16 Bit/s)
Log & Cue incl.: Yes
Size: 489 MB
Password: “slam” (without ” “)


All Downloads/Hosters are compatible

Download 1
Turbobit.net
Rapidgator.net
UploadEver.com
KatFile.com
UsersDrive.com
Download 2
Turbobit.net
Rapidgator.net
UploadEver.com
KatFile.com
UsersDrive.com
Download 3
Turbobit.net
Rapidgator.net
UploadEver.com
KatFile.com
UsersDrive.com

Tracklist:

1. Good Evening Las Vegas. 0:21
2. Beyond Beautiful. 4:52
3. Same Old Song And Dance. 5:50
4. No More No More. 4:40
5. Seasons Of Wither. 5:05
6. Light Inside. 3:36
7. Draw The Line. 7:22
8. I Don't Want To Miss A Thing. 
4:34
9. Big Ten Inch Record. 4:17
10. Rattlesnake Shake. 8:24
11. Walk This Way. 4:13
12. Train Kept A Rollin'. 5:13

EAC-Log, CUE-Sheed & NFO:

Click to open spoiler
Exact Audio Copy V1.0 beta 3 from 29. August 2011

EAC extraction logfile from 24. September 2013, 0:24

Aerosmith / Rockin’ The Joint

Used drive : ASUS DRW-24B1ST Adapter: 2 ID: 0

Read mode : Secure
Utilize accurate stream : Yes
Defeat audio cache : Yes
Make use of C2 pointers : No

Read offset correction : 6
Overread into Lead-In and Lead-Out : No
Fill up missing offset samples with silence : Yes
Delete leading and trailing silent blocks : No
Null samples used in CRC calculations : Yes
Used interface : Native Win32 interface for Win NT & 2000

Used output format : User Defined Encoder
Selected bitrate : 1024 kBit/s
Quality : High
Add ID3 tag : No
Command line compressor : C:\Program Files (x86)\Exact Audio Copy\Flac\flac.exe
Additional command line options : -V -8 -T “Date=%year%” -T “Genre=%genre%” %source%

TOC of the extracted CD

Track | Start | Length | Start sector | End sector
———————————————————
1 | 0:00.00 | 0:21.41 | 0 | 1615
2 | 0:21.41 | 4:51.62 | 1616 | 23502
3 | 5:13.28 | 5:50.26 | 23503 | 49778
4 | 11:03.54 | 4:40.03 | 49779 | 70781
5 | 15:43.57 | 5:05.02 | 70782 | 93658
6 | 20:48.59 | 3:35.23 | 93659 | 109806
7 | 24:24.07 | 7:22.58 | 109807 | 143014
8 | 31:46.65 | 4:33.28 | 143015 | 163517
9 | 36:20.18 | 4:17.04 | 163518 | 182796
10 | 40:37.22 | 8:24.33 | 182797 | 220629
11 | 49:01.55 | 4:12.48 | 220630 | 239577
12 | 53:14.28 | 5:13.23 | 239578 | 263075

Range status and errors

Selected range

Filename F:\Torrent\Aerosmith – Rockin’ The Joint (Sony BMG, CN 97737) (2005)\Aerosmith – Rockin’ The Joint.wav

Peak level 97.6 %
Extraction speed 4.4 X
Range quality 100.0 %
Test CRC 671C87DA
Copy CRC 671C87DA
Copy OK

No errors occurred

AccurateRip summary

Track 1 accurately ripped (confidence 21) [112A3258] (AR v2)
Track 2 accurately ripped (confidence 21) [7E83F44F] (AR v2)
Track 3 accurately ripped (confidence 21) [A37E66A9] (AR v2)
Track 4 accurately ripped (confidence 21) [5452979C] (AR v2)
Track 5 accurately ripped (confidence 21) [5428D608] (AR v2)
Track 6 accurately ripped (confidence 21) [96116123] (AR v2)
Track 7 accurately ripped (confidence 21) [ECBF1A9A] (AR v2)
Track 8 accurately ripped (confidence 21) [2269F7BA] (AR v2)
Track 9 accurately ripped (confidence 22) [86AA9D97] (AR v2)
Track 10 accurately ripped (confidence 21) [20025E40] (AR v2)
Track 11 accurately ripped (confidence 21) [879FA002] (AR v2)
Track 12 accurately ripped (confidence 20) [B304F25D] (AR v2)

All tracks accurately ripped

End of status report

—- CUETools DB Plugin V2.1.4

[CTDB TOCID: PY815ZSLRJjpW6ZBVMEE6Y9sU6Y-] found
Submit result: PY815ZSLRJjpW6ZBVMEE6Y9sU6Y- has been confirmed
Track | CTDB Status
1 | (22/22) Accurately ripped
2 | (21/22) Accurately ripped
3 | (21/22) Accurately ripped
4 | (21/22) Accurately ripped
5 | (21/22) Accurately ripped
6 | (21/22) Accurately ripped
7 | (21/22) Accurately ripped
8 | (21/22) Accurately ripped
9 | (21/22) Accurately ripped
10 | (20/22) Accurately ripped
11 | (20/22) Accurately ripped
12 | (20/22) Accurately ripped

==== Log checksum 56E414C36368BE8EA54624BA1BCAAA580F02213A6EA9410CCDA87A1A01814C20 ====

REM GENRE “Hard Rock”
REM DATE 2005
REM DISCID A20DB30C
REM COMMENT “ExactAudioCopy v1.0b3”
PERFORMER “Aerosmith”
TITLE “Rockin’ The Joint [USA CN 97737]”
FILE “Aerosmith – Rockin’ The Joint.flac” WAVE
TRACK 01 AUDIO
TITLE “Good Evening Las Vegas”
PERFORMER “Aerosmith”
INDEX 01 00:00:00
TRACK 02 AUDIO
TITLE “Beyond Beautiful”
PERFORMER “Aerosmith”
INDEX 01 00:21:41
TRACK 03 AUDIO
TITLE “Same Old Song And Dance”
PERFORMER “Aerosmith”
INDEX 01 05:13:28
TRACK 04 AUDIO
TITLE “No More No More”
PERFORMER “Aerosmith”
INDEX 01 11:03:54
TRACK 05 AUDIO
TITLE “Seasons Of Wither”
PERFORMER “Aerosmith”
INDEX 01 15:43:57
TRACK 06 AUDIO
TITLE “Light Inside”
PERFORMER “Aerosmith”
INDEX 01 20:48:59
TRACK 07 AUDIO
TITLE “Draw The Line”
PERFORMER “Aerosmith”
INDEX 01 24:24:07
TRACK 08 AUDIO
TITLE “I Don’t Want To Miss A Thing”
PERFORMER “Aerosmith”
INDEX 01 31:46:65
TRACK 09 AUDIO
TITLE “Big Ten Inch Record”
PERFORMER “Aerosmith”
INDEX 01 36:20:18
TRACK 10 AUDIO
TITLE “Rattlesnake Shake”
PERFORMER “Aerosmith”
INDEX 01 40:37:22
TRACK 11 AUDIO
TITLE “Walk This Way”
PERFORMER “Aerosmith”
INDEX 01 49:01:55
TRACK 12 AUDIO
TITLE “Train Kept A Rollin'”
PERFORMER “Aerosmith”
INDEX 01 53:14:28


Leave a Reply

Your email address will not be published. Required fields are marked *

This site uses Akismet to reduce spam. Learn how your comment data is processed.