Aerosmith – Rock In A Hard Place




Artist: Aerosmith
Year: 1982/1988
Genre: Rock
Notes: Discogs
Add. Notes:
Cover incl.: Yes
Encoder: FLAC
Bitrate: ~900 kBit/s (44.1 kHz/16 Bit/s)
Log & Cue incl.: Yes
Size: 284,62 MB
Password: “slam” (without ” “)


All Downloads/Hosters are compatible

Download 1
Turbobit.net
Rapidgator.net
KatFile.com
UploadRar.com
Download 2
Turbobit.net
Rapidgator.net
KatFile.com
UploadRar.com

Tracklist:

1 - Jailbait - 4:39
2 - Lightning Strikes - 4:26
3 - Bitch's Brew - 4:14
4 - Bolivian Ragamuffin - 3:32
5 - Cry Me A River - 4:06
6 - Prelude To Joanie - 2:21
7 - Joanie's Butterfly - 5:35
8 - Rock In A Hard Place (Cheshire Cat) - 4:46
9 - Jig Is Up - 3:10
10 - Push Comes To Shove - 4:28

EAC-Log, CUE-Sheed & NFO:

Click to open spoiler
Exact Audio Copy V1.0 beta 2 from 29. April 2011

Отчёт EAC об извлечении, выполненном 18. мая 2013, 11:07

Aerosmith / Rock In A Hard Place

Дисковод: MATSHITADVD-RAM UJ8A0AS Adapter: 1 ID: 0

Режим чтения : Достоверность
Использование точного потока : Да
Отключение кэша аудио : Да
Использование указателей C2 : Нет

Коррекция смещения при чтении : 102
Способность читать области Lead-in и Lead-out : Нет
Заполнение пропущенных сэмплов тишиной : Да
Удаление блоков с тишиной в начале и конце : Нет
При вычислениях CRC использовались нулевые сэмплы : Да
Интерфейс : Встроенный Win32-интерфейс для Win NT/2000

Выходной формат : Пользовательский кодировщик
Выбранный битрейт : 128 kBit/s
Качество : Высокий
Добавление ID3-тега : Нет
Утилита сжатия : C:\Program Files (x86)\Exact Audio Copy\Flac\flac.exe
Дополнительные параметры : -V -8 -T “Date=%year%” -T “Genre=%genre%” %source%

TOC извлечённого CD

Трек | Старт | Длительность | Начальный сектор | Конечный сектор
———————————————————————
1 | 0:00.00 | 4:38.65 | 0 | 20914
2 | 4:38.65 | 4:26.40 | 20915 | 40904
3 | 9:05.30 | 4:14.22 | 40905 | 59976
4 | 13:19.52 | 3:32.50 | 59977 | 75926
5 | 16:52.27 | 4:06.68 | 75927 | 94444
6 | 20:59.20 | 1:21.17 | 94445 | 100536
7 | 22:20.37 | 5:36.03 | 100537 | 125739
8 | 27:56.40 | 4:45.12 | 125740 | 147126
9 | 32:41.52 | 3:10.50 | 147127 | 161426
10 | 35:52.27 | 4:28.03 | 161427 | 181529

Характеристики диапазона извлечения и сообщения об ошибках

Выбранный диапазон

Имя файла D:\Музыка\torrents\Aerosmith – Discography\Albums\Aerosmith (1982) – Rock In A Hard Place\Aerosmith – Rock In A Hard Place.wav

Пиковый уровень 100.0 %
Скорость извлечения 1.2 X
Качество диапазона 100.0 %
CRC теста 7AC426FE
CRC копии 7AC426FE
Копирование… OK

Ошибок не произошло

Конец отчёта

==== Контрольная сумма отчёта F56E3FBBC3C0CCC032E40CDC3E038C8D6CF1362FA2669200A0783CD9D33E74D9 ====

REM GENRE Hard Rock
REM DATE 1982
REM DISCID 7409740A
REM COMMENT “ExactAudioCopy v1.0b2”
PERFORMER “Aerosmith”
TITLE “Rock In A Hard Place [USA CK 38061]”
FILE “Aerosmith – Rock In A Hard Place.flac” WAVE
TRACK 01 AUDIO
TITLE “Jailbait”
PERFORMER “Aerosmith”
INDEX 01 00:00:00
TRACK 02 AUDIO
TITLE “Lightning Strikes”
PERFORMER “Aerosmith”
INDEX 00 04:38:30
INDEX 01 04:38:65
TRACK 03 AUDIO
TITLE “Bitch’s Brew”
PERFORMER “Aerosmith”
INDEX 01 09:05:30
TRACK 04 AUDIO
TITLE “Bolivian Ragamuffin”
PERFORMER “Aerosmith”
INDEX 00 13:19:20
INDEX 01 13:19:52
TRACK 05 AUDIO
TITLE “Cry Me A River”
PERFORMER “Aerosmith”
INDEX 01 16:52:27
TRACK 06 AUDIO
TITLE “Prelude To Joanie”
PERFORMER “Aerosmith”
INDEX 01 20:59:20
TRACK 07 AUDIO
TITLE “Joanie’s Butterfly”
PERFORMER “Aerosmith”
INDEX 01 22:20:37
TRACK 08 AUDIO
TITLE “Rock In A Hard Place (Cheshire Cat)”
PERFORMER “Aerosmith”
INDEX 01 27:56:40
TRACK 09 AUDIO
TITLE “Jig Is Up”
PERFORMER “Aerosmith”
INDEX 00 32:41:45
INDEX 01 32:41:52
TRACK 10 AUDIO
TITLE “Push Comes To Shove”
PERFORMER “Aerosmith”
INDEX 01 35:52:27


Leave a Reply

Your email address will not be published. Required fields are marked *

This site uses Akismet to reduce spam. Learn how your comment data is processed.