Aerosmith – Pump (Limited Edition)




Artist: Aerosmith
Year: 1989
Genre: Rock
Notes: Discogs
Add. Notes: Limited Edition
Cover incl.: Yes
Encoder: FLAC
Bitrate: ~1000 kBit/s (44.1 kHz/16 Bit/s)
Log & Cue incl.: Yes
Size: 342,44 MB
Password: “slam” (without ” “)


All Downloads/Hosters are compatible

Download 1
Turbobit.net
Rapidgator.net
KatFile.com
UploadRar.com
Download 2
Turbobit.net
Rapidgator.net
KatFile.com
UploadRar.com
Download 3
Turbobit.net
Rapidgator.net
KatFile.com
UploadRar.com

Tracklist:

1. Young Lust. 4:19
2. F.I.N.E.. 4:08
3.1. Going Down. 0:17
3.2. Love In An Elevator. 5:21
4. Monkey On My Back. 3:56
5.1. Water Song. 0:11
5.2. Janie's Got A Gun. 5:29
6.1. Dulcimer Stomp. 0:50
6.2. The Other Side. 4:06
7. My Girl. 3:10
8. Don't Get Mad, Get Even. 4:48
9.1. Hoodoo. 0:55
9.2. Voodoo Medicine Man. 3:46
10. What It Takes. 6:28

EAC-Log, CUE-Sheed & NFO:

Click to open spoiler
Exact Audio Copy V1.0 beta 2 from 29. April 2011

Отчёт EAC об извлечении, выполненном 13. октября 2012, 0:08

Aerosmith / Pump

Дисковод: MATSHITADVD-RAM UJ8A0AS Adapter: 0 ID: 1

Режим чтения : Достоверность
Использование точного потока : Да
Отключение кэша аудио : Да
Использование указателей C2 : Нет

Коррекция смещения при чтении : 102
Способность читать области Lead-in и Lead-out : Нет
Заполнение пропущенных сэмплов тишиной : Да
Удаление блоков с тишиной в начале и конце : Нет
При вычислениях CRC использовались нулевые сэмплы : Да
Интерфейс : Встроенный Win32-интерфейс для Win NT/2000

Выходной формат : Пользовательский кодировщик
Выбранный битрейт : 128 kBit/s
Качество : Высокий
Добавление ID3-тега : Нет
Утилита сжатия : C:\Program Files (x86)\Exact Audio Copy\Flac\flac.exe
Дополнительные параметры : -V -8 -T “Date=%year%” -T “Genre=%genre%” %source%

TOC извлечённого CD

Трек | Старт | Длительность | Начальный сектор | Конечный сектор
———————————————————————
1 | 0:00.00 | 4:19.32 | 0 | 19456
2 | 4:19.32 | 4:09.50 | 19457 | 38181
3 | 8:29.07 | 5:38.73 | 38182 | 63604
4 | 14:08.05 | 3:57.22 | 63605 | 81401
5 | 18:05.27 | 5:33.25 | 81402 | 106401
6 | 23:38.52 | 4:56.65 | 106402 | 128666
7 | 28:35.42 | 3:10.15 | 128667 | 142931
8 | 31:45.57 | 4:49.18 | 142932 | 164624
9 | 36:35.00 | 4:39.00 | 164625 | 185549
10 | 41:14.00 | 6:29.57 | 185550 | 214781

Характеристики диапазона извлечения и сообщения об ошибках

Выбранный диапазон

Имя файла F:\Музыка\torrents\Aerosmith – Discography\Albums\Aerosmith (1989) – Pump\Aerosmith – Pump.wav

Пиковый уровень 100.0 %
Скорость извлечения 1.2 X
Качество диапазона 100.0 %
CRC теста 41F70BCA
CRC копии 41F70BCA
Копирование… OK

Ошибок не произошло

Конец отчёта

==== Контрольная сумма отчёта 1A57783D7772D285B48114F9BD1148D5B675F1FBD7A43229CB6C8F5287BEA7E0 ====

REM GENRE Hard Rock
REM DATE 1989
REM DISCID 7D0B2F0A
REM COMMENT “ExactAudioCopy v1.0b2”
PERFORMER “Aerosmith”
TITLE “Pump [USA 2-24269-dj]”
FILE “Aerosmith – Pump.flac” WAVE
TRACK 01 AUDIO
TITLE “Young Lust”
PERFORMER “Aerosmith”
INDEX 01 00:00:00
TRACK 02 AUDIO
TITLE “F.I.N.E.”
PERFORMER “Aerosmith”
INDEX 01 04:19:32
TRACK 03 AUDIO
TITLE “Love In An Elevator”
PERFORMER “Aerosmith”
INDEX 01 08:29:07
INDEX 02 08:46:07
TRACK 04 AUDIO
TITLE “Monkey On My Back”
PERFORMER “Aerosmith”
INDEX 01 14:08:05
TRACK 05 AUDIO
TITLE “Janie’s Got A Gun”
PERFORMER “Aerosmith”
INDEX 01 18:05:27
INDEX 02 18:16:12
TRACK 06 AUDIO
TITLE “The Other Side”
PERFORMER “Aerosmith”
INDEX 01 23:38:52
INDEX 02 24:29:27
TRACK 07 AUDIO
TITLE “My Girl”
PERFORMER “Aerosmith”
INDEX 01 28:35:42
TRACK 08 AUDIO
TITLE “Don’t Get Mad, Get Even”
PERFORMER “Aerosmith”
INDEX 01 31:45:57
TRACK 09 AUDIO
TITLE “Voodoo Medicine Man”
PERFORMER “Aerosmith”
INDEX 01 36:35:00
INDEX 02 37:29:22
TRACK 10 AUDIO
TITLE “What It Takes”
PERFORMER “Aerosmith”
INDEX 01 41:14:00


Leave a Reply

Your email address will not be published. Required fields are marked *

This site uses Akismet to reduce spam. Learn how your comment data is processed.