Aerosmith – Pump (Japanese Edition)




Artist: Aerosmith
Year: 1989
Genre: Rock
Notes: Discogs
Add. Notes: Japanese Edition
Cover incl.: Yes
Encoder: FLAC
Bitrate: ~1000 kBit/s (44.1 kHz/16 Bit/s)
Log & Cue incl.: Yes
Size: 521,56 MB
Password: “slam” (without ” “)


All Downloads/Hosters are compatible

Download 1
Turbobit.net
KatFile.com
Rapidgator.net
Download 2
Turbobit.net
KatFile.com
Rapidgator.net

Tracklist:

1 - Young Lust - 4:19
2 - F.I.N.E. - 4:08
3.1 - Going Down - 0:17
3.2 - Love In An Elevator - 5:21
4 - Monkey On My Back - 3:56
5.1 - Water Song - 0:11
5.2 - Janie's Got A Gun - 5:29
6.1 - Dulcimer Stomp - 0:50
6.2 - The Other Side - 4:06
7 - My Girl - 3:10
8 - Don't Get Mad, Get Even - 4:48
9.1 - Hoodoo - 0:55
9.2 - Voodoo Medicine Man - 3:46
10 - What It Takes - 6:28
11 - Ain't Enough - 5:02

EAC-Log, CUE-Sheed & NFO:

Click to open spoiler
Exact Audio Copy V1.0 beta 2 from 29. April 2011

Отчёт EAC об извлечении, выполненном 5. октября 2012, 23:03

Aerosmith / Pump

Дисковод: MATSHITADVD-RAM UJ8A0AS Adapter: 0 ID: 1

Режим чтения : Достоверность
Использование точного потока : Да
Отключение кэша аудио : Да
Использование указателей C2 : Нет

Коррекция смещения при чтении : 102
Способность читать области Lead-in и Lead-out : Нет
Заполнение пропущенных сэмплов тишиной : Да
Удаление блоков с тишиной в начале и конце : Нет
При вычислениях CRC использовались нулевые сэмплы : Да
Интерфейс : Встроенный Win32-интерфейс для Win NT/2000

Выходной формат : Пользовательский кодировщик
Выбранный битрейт : 128 kBit/s
Качество : Высокий
Добавление ID3-тега : Нет
Утилита сжатия : C:\Program Files (x86)\Exact Audio Copy\Flac\flac.exe
Дополнительные параметры : -V -8 -T “Date=%year%” -T “Genre=%genre%” %source%

TOC извлечённого CD

Трек | Старт | Длительность | Начальный сектор | Конечный сектор
———————————————————————
1 | 0:00.00 | 4:20.20 | 0 | 19519
2 | 4:20.20 | 4:09.50 | 19520 | 38244
3 | 8:29.70 | 5:38.50 | 38245 | 63644
4 | 14:08.45 | 3:57.20 | 63645 | 81439
5 | 18:05.65 | 5:33.30 | 81440 | 106444
6 | 23:39.20 | 4:56.65 | 106445 | 128709
7 | 28:36.10 | 3:10.15 | 128710 | 142974
8 | 31:46.25 | 4:49.37 | 142975 | 164686
9 | 36:35.62 | 4:38.53 | 164687 | 185589
10 | 41:14.40 | 6:29.30 | 185590 | 214794
11 | 47:43.70 | 5:02.27 | 214795 | 237471

Характеристики диапазона извлечения и сообщения об ошибках

Выбранный диапазон

Имя файла F:\Музыка\torrents\Aerosmith – Discography\Albums\Aerosmith (1989) – Pump [Japan]\Aerosmith – Pump.wav

Пиковый уровень 100.0 %
Скорость извлечения 1.2 X
Качество диапазона 99.9 %
CRC теста 445991D2
CRC копии 445991D2
Копирование… OK

Ошибок не произошло

Конец отчёта

==== Контрольная сумма отчёта 96DCFB28CA68E6515A6279484326AD88989F283A2B28B7B331D51D95881A73BB ====

REM GENRE Hard Rock
REM DATE 1989
REM DISCID 960C5E0B
REM COMMENT “ExactAudioCopy v1.0b2”
PERFORMER “Aerosmith”
TITLE “Pump [Japan 22P2-2954]”
FILE “Aerosmith – Pump [Japan 22P2-2954].flac” WAVE
TRACK 01 AUDIO
TITLE “Young Lust”
PERFORMER “Aerosmith”
INDEX 01 00:00:00
TRACK 02 AUDIO
TITLE “F.I.N.E.”
PERFORMER “Aerosmith”
INDEX 01 04:20:20
TRACK 03 AUDIO
TITLE “Love In An Elevator”
PERFORMER “Aerosmith”
INDEX 01 08:29:70
TRACK 04 AUDIO
TITLE “Monkey On My Back”
PERFORMER “Aerosmith”
INDEX 01 14:08:45
TRACK 05 AUDIO
TITLE “Janie’s Got A Gun”
PERFORMER “Aerosmith”
INDEX 01 18:05:65
TRACK 06 AUDIO
TITLE “The Other Side”
PERFORMER “Aerosmith”
INDEX 01 23:39:20
TRACK 07 AUDIO
TITLE “My Girl”
PERFORMER “Aerosmith”
INDEX 01 28:36:10
TRACK 08 AUDIO
TITLE “Don’t Get Mad, Get Even”
PERFORMER “Aerosmith”
INDEX 01 31:46:25
TRACK 09 AUDIO
TITLE “Voodoo Medicine Man”
PERFORMER “Aerosmith”
INDEX 01 36:35:62
TRACK 10 AUDIO
TITLE “What It Takes”
PERFORMER “Aerosmith”
INDEX 01 41:14:40
TRACK 11 AUDIO
TITLE “Ain’t Enough”
PERFORMER “Aerosmith”
INDEX 01 47:43:70


Leave a Reply

Your email address will not be published. Required fields are marked *

This site uses Akismet to reduce spam. Learn how your comment data is processed.