Aerosmith – Permanent Vacation (Japanese Edition)




Artist: Aerosmith
Year: 1987
Genre: Rock
Notes: Discogs
Add. Notes: Japanese Edition
Cover incl.: Yes
Encoder: FLAC
Bitrate: ~900 kBit/s (44.1 kHz/16 Bit/s)
Log & Cue incl.: Yes
Size: 379,33 MB
Password: “slam” (without ” “)


All Downloads/Hosters are compatible

Download 1
Turbobit.net
Rapidgator.net
UploadEver.com
KatFile.com
UsersDrive.com
Download 2
Turbobit.net
Rapidgator.net
UploadEver.com
KatFile.com
UsersDrive.com
Download 3
Turbobit.net
Rapidgator.net
UploadEver.com
KatFile.com
UsersDrive.com

Tracklist:

1 - Heart's Done Time - 4:42
2 - Magic Touch - 4:40
3 - Rag Doll - 4:21
4 - Simoriah - 3:21
5 - Dude (Looks Like A Lady) - 4:23
6 - St. John - 4:12
7 - Hangman Jury - 5:33
8 - Girl Keeps Coming Apart - 4:12
9 - Angel - 5:10
10 - Permanent Vacation - 4:52
11 - I'm Down - 2:20
12 - The Movie - 4:00

EAC-Log, CUE-Sheed & NFO:

Click to open spoiler
Exact Audio Copy V1.0 beta 3 from 29. August 2011

EAC extraction logfile from 22. September 2013, 23:37

Aerosmith / Permanent Vacation

Used drive : Optiarc DVD RW AD-7203S Adapter: 3 ID: 0

Read mode : Secure
Utilize accurate stream : Yes
Defeat audio cache : Yes
Make use of C2 pointers : No

Read offset correction : 48
Overread into Lead-In and Lead-Out : No
Fill up missing offset samples with silence : Yes
Delete leading and trailing silent blocks : No
Null samples used in CRC calculations : Yes
Used interface : Native Win32 interface for Win NT & 2000

Used output format : User Defined Encoder
Selected bitrate : 768 kBit/s
Quality : High
Add ID3 tag : No
Command line compressor : C:\Program Files\Exact Audio Copy\FLAC\FLAC.EXE
Additional command line options : -V -8 -T “Date=%year%” -T “Genre=%genre%” %source%

TOC of the extracted CD

Track | Start | Length | Start sector | End sector
———————————————————
1 | 0:00.00 | 4:44.60 | 0 | 21359
2 | 4:44.60 | 4:37.15 | 21360 | 42149
3 | 9:22.00 | 4:26.12 | 42150 | 62111
4 | 13:48.12 | 3:22.00 | 62112 | 77261
5 | 17:10.12 | 4:26.45 | 77262 | 97256
6 | 21:36.57 | 4:09.33 | 97257 | 115964
7 | 25:46.15 | 5:31.27 | 115965 | 140816
8 | 31:17.42 | 4:13.33 | 140817 | 159824
9 | 35:31.00 | 5:09.30 | 159825 | 183029
10 | 40:40.30 | 4:54.50 | 183030 | 205129
11 | 45:35.05 | 2:19.60 | 205130 | 215614
12 | 47:54.65 | 4:01.10 | 215615 | 233699

Range status and errors

Selected range

Filename C:\Users\susi\Desktop\Cd\A\Aerosmith – Permanent Vacation.wav

Peak level 99.5 %
Extraction speed 4.0 X
Range quality 100.0 %
Test CRC C8244BB4
Copy CRC C8244BB4
Copy OK

No errors occurred

AccurateRip summary

Track 1 accurately ripped (confidence 2) [BD66AB1B] (AR v2)
Track 2 accurately ripped (confidence 2) [956D3BBC] (AR v2)
Track 3 accurately ripped (confidence 2) [FD4513A2] (AR v2)
Track 4 cannot be verified as accurate (confidence 3) [7D0BA35A], AccurateRip returned [4F47E28A] (AR v2)
Track 5 accurately ripped (confidence 2) [0C63C8F0] (AR v2)
Track 6 accurately ripped (confidence 2) [D9DF43C9] (AR v2)
Track 7 accurately ripped (confidence 2) [BFB9C444] (AR v2)
Track 8 accurately ripped (confidence 2) [309231A9] (AR v2)
Track 9 accurately ripped (confidence 2) [E52E5BFB] (AR v2)
Track 10 accurately ripped (confidence 2) [2E61A969] (AR v2)
Track 11 accurately ripped (confidence 2) [DA81BD1B] (AR v2)
Track 12 accurately ripped (confidence 2) [D23B492A] (AR v2)

11 трек(и) скопированы точно
1 трек(и) не удалось проверить на точность

Some tracks could not be verified as accurate

End of status report

—- CUETools DB Plugin V2.1.3

[CTDB TOCID: RkZ3AR3gWwaaz54U0LHWPYIE0tE-] found, Submit result: RkZ3AR3gWwaaz54U0LHWPYIE0tE- has been confirmed
[b2959991] (2/3) Accurately ripped
[ca111874] (1/3) Differs in 2 samples @46:28:07
You can use CUETools to repair this rip.

==== Log checksum FE61F522A1B4F262AB6F904530D77E17EB9CA0995FBC5F95042FC00239D55BAC ====

REM DATE 1987
REM GENRE Hard Rock
REM DISCID B00C2C0C
REM COMMENT “ExactAudioCopy v1.0b3”
PERFORMER “Aerosmith”
TITLE “Permanent Vacation [Japan 32XD-822]”
FILE “Aerosmith – Permanent Vacation.flac” WAVE
TRACK 01 AUDIO
TITLE “Heart’s Done Time”
PERFORMER “Aerosmith”
INDEX 01 00:00:00
TRACK 02 AUDIO
TITLE “Magic Touch”
PERFORMER “Aerosmith”
INDEX 00 04:43:05
INDEX 01 04:44:60
TRACK 03 AUDIO
TITLE “Rag Doll”
PERFORMER “Aerosmith”
INDEX 00 09:20:35
INDEX 01 09:22:00
TRACK 04 AUDIO
TITLE “Simoriah”
PERFORMER “Aerosmith”
INDEX 00 13:45:10
INDEX 01 13:48:12
TRACK 05 AUDIO
TITLE “Dude (Looks Like A Lady)”
PERFORMER “Aerosmith”
INDEX 00 17:08:10
INDEX 01 17:10:12
TRACK 06 AUDIO
TITLE “St. John”
PERFORMER “Aerosmith”
INDEX 00 21:34:12
INDEX 01 21:36:57
TRACK 07 AUDIO
TITLE “Hangman Jury”
PERFORMER “Aerosmith”
INDEX 01 25:46:15
TRACK 08 AUDIO
TITLE “Girl Keeps Coming Apart”
PERFORMER “Aerosmith”
INDEX 01 31:17:42
TRACK 09 AUDIO
TITLE “Angel”
PERFORMER “Aerosmith”
INDEX 00 35:30:42
INDEX 01 35:31:00
TRACK 10 AUDIO
TITLE “Permanent Vacation”
PERFORMER “Aerosmith”
INDEX 00 40:37:62
INDEX 01 40:40:30
TRACK 11 AUDIO
TITLE “I’m Down”
PERFORMER “Aerosmith”
INDEX 00 45:32:70
INDEX 01 45:35:05
TRACK 12 AUDIO
TITLE “The Movie”
PERFORMER “Aerosmith”
INDEX 00 47:54:10
INDEX 01 47:54:65


Leave a Reply

Your email address will not be published. Required fields are marked *

This site uses Akismet to reduce spam. Learn how your comment data is processed.