Aerosmith – Permanent Vacation




Artist: Aerosmith
Year: 1987
Genre: Rock
Notes: Discogs
Add. Notes:
Cover incl.: Yes
Encoder: FLAC
Bitrate: ~900 kBit/s (44.1 kHz/16 Bit/s)
Log & Cue incl.: Yes
Size: 363,91 MB
Password: “slam” (without ” “)


All Downloads/Hosters are compatible

Download 1
Turbobit.net
Rapidgator.net
KatFile.com
UploadRar.com
Download 2
Turbobit.net
Rapidgator.net
KatFile.com
UploadRar.com

Tracklist:

1 - Heart's Done Time - 4:42
2 - Magic Touch - 4:40
3 - Rag Doll - 4:21
4 - Simoriah - 3:21
5 - Dude (Looks Like A Lady) - 4:23
6 - St. John - 4:12
7 - Hangman Jury - 5:33
8 - Girl Keeps Coming Apart - 4:12
9 - Angel - 5:10
10 - Permanent Vacation - 4:52
11 - I'm Down - 2:20
12 - The Movie - 4:00

EAC-Log, CUE-Sheed & NFO:

Click to open spoiler
Exact Audio Copy V1.0 beta 2 from 29. April 2011

Отчёт EAC об извлечении, выполненном 10. сентября 2012, 21:33

Aerosmith / Permanent Vacation

Дисковод: MATSHITADVD-RAM UJ8A0AS Adapter: 0 ID: 1

Режим чтения : Достоверность
Использование точного потока : Да
Отключение кэша аудио : Да
Использование указателей C2 : Нет

Коррекция смещения при чтении : 102
Способность читать области Lead-in и Lead-out : Нет
Заполнение пропущенных сэмплов тишиной : Да
Удаление блоков с тишиной в начале и конце : Нет
При вычислениях CRC использовались нулевые сэмплы : Да
Интерфейс : Встроенный Win32-интерфейс для Win NT/2000

Выходной формат : Пользовательский кодировщик
Выбранный битрейт : 128 kBit/s
Качество : Высокий
Добавление ID3-тега : Нет
Утилита сжатия : C:\Program Files (x86)\Exact Audio Copy\Flac\flac.exe
Дополнительные параметры : -V -8 -T “Date=%year%” -T “Genre=%genre%” %source%

TOC извлечённого CD

Трек | Старт | Длительность | Начальный сектор | Конечный сектор
———————————————————————
1 | 0:00.00 | 4:42.05 | 0 | 21154
2 | 4:42.05 | 4:37.43 | 21155 | 41972
3 | 9:19.48 | 4:25.32 | 41973 | 61879
4 | 13:45.05 | 3:22.13 | 61880 | 77042
5 | 17:07.18 | 4:25.40 | 77043 | 96957
6 | 21:32.58 | 4:11.65 | 96958 | 115847
7 | 25:44.48 | 5:31.55 | 115848 | 140727
8 | 31:16.28 | 4:12.42 | 140728 | 159669
9 | 35:28.70 | 5:09.03 | 159670 | 182847
10 | 40:37.73 | 4:48.57 | 182848 | 204504
11 | 45:26.55 | 2:20.13 | 204505 | 215017
12 | 47:46.68 | 3:57.70 | 215018 | 232862

Характеристики диапазона извлечения и сообщения об ошибках

Выбранный диапазон

Имя файла F:\Музыка\torrents\Aerosmith – Discography\Aerosmith (1987) – Permanent Vacation\Aerosmith – Permanent Vacation.wav

Пиковый уровень 80.8 %
Скорость извлечения 1.2 X
Качество диапазона 99.9 %
CRC теста 766497BF
CRC копии 766497BF
Копирование… OK

Ошибок не произошло

Конец отчёта

==== Контрольная сумма отчёта DFD52E9F5E77F9260A898BA691931174C672B8827730441012AE149EFB05DEC0 ====

REM GENRE Hard Rock
REM DATE 1987
REM DISCID B40C200C
REM COMMENT “ExactAudioCopy v1.0b2”
PERFORMER “Aerosmith”
TITLE “Permanent Vacation [Germany 924 162-2]”
FILE “Aerosmith – Permanent Vacation.flac” WAVE
TRACK 01 AUDIO
TITLE “Heart’s Done Time”
PERFORMER “Aerosmith”
INDEX 01 00:00:00
TRACK 02 AUDIO
TITLE “Magic Touch”
PERFORMER “Aerosmith”
INDEX 01 04:42:05
TRACK 03 AUDIO
TITLE “Rag Doll”
PERFORMER “Aerosmith”
INDEX 00 09:17:63
INDEX 01 09:19:48
TRACK 04 AUDIO
TITLE “Simoriah”
PERFORMER “Aerosmith”
INDEX 00 13:42:25
INDEX 01 13:45:05
TRACK 05 AUDIO
TITLE “Dude (Looks Like A Lady)”
PERFORMER “Aerosmith”
INDEX 00 17:06:33
INDEX 01 17:07:18
TRACK 06 AUDIO
TITLE “St. John”
PERFORMER “Aerosmith”
INDEX 00 21:30:45
INDEX 01 21:32:58
TRACK 07 AUDIO
TITLE “Hangman Jury”
PERFORMER “Aerosmith”
INDEX 00 25:42:73
INDEX 01 25:44:48
TRACK 08 AUDIO
TITLE “Girl Keeps Coming Apart”
PERFORMER “Aerosmith”
INDEX 00 31:15:13
INDEX 01 31:16:28
TRACK 09 AUDIO
TITLE “Angel”
PERFORMER “Aerosmith”
INDEX 00 35:25:18
INDEX 01 35:28:70
TRACK 10 AUDIO
TITLE “Permanent Vacation”
PERFORMER “Aerosmith”
INDEX 00 40:35:30
INDEX 01 40:37:73
TRACK 11 AUDIO
TITLE “I’m Down”
PERFORMER “Aerosmith”
INDEX 01 45:26:55
TRACK 12 AUDIO
TITLE “The Movie”
PERFORMER “Aerosmith”
INDEX 00 47:45:08
INDEX 01 47:46:68


Leave a Reply

Your email address will not be published. Required fields are marked *

Enter the text from the image below
 

This site uses Akismet to reduce spam. Learn how your comment data is processed.