Aerosmith – Pandora’s Toys




Artist: Aerosmith
Year: 1994
Genre: Rock
Notes: Discogs
Add. Notes:
Cover incl.: Yes
Encoder: FLAC
Bitrate: ~800 kBit/s (44.1 kHz/16 Bit/s)
Log & Cue incl.: Yes
Size: 617,59 MB
Password: “slam” (without ” “)


All Downloads/Hosters are compatible

Download 1
Turbobit.net
Rapidgator.net
UploadEver.com
KatFile.com
UsersDrive.com
Download 2
Turbobit.net
Rapidgator.net
UploadEver.com
KatFile.com
UsersDrive.com
Download 3
Turbobit.net
Rapidgator.net
UploadEver.com
KatFile.com
UsersDrive.com

Tracklist:

1 - Sweet Emotion - 4:36
2 - Draw The Line - 3:43
3 - Walk This Way - 3:41
4 - Dream On - 4:27
5 - Train Kept A Rollin' - 5:42
6 - Mama Kin - 4:27
7 - Nobody's Fault - 4:22
8 - Seasons Of Wither - 5:07
9 - Big Ten-Inch Record - 3:57
10 - All Your Love - 5:29
11 - Helter Skelter - 3:16
12 - Chip Away The Stone - 4:06

EAC-Log, CUE-Sheed & NFO:

Click to open spoiler
Exact Audio Copy V1.0 beta 2 from 29. April 2011

Отчёт EAC об извлечении, выполненном 30. мая 2013, 21:52

Aerosmith / Pandora’s Toys

Дисковод: MATSHITADVD-RAM UJ8A0AS Adapter: 1 ID: 0

Режим чтения : Достоверность
Использование точного потока : Да
Отключение кэша аудио : Да
Использование указателей C2 : Нет

Коррекция смещения при чтении : 102
Способность читать области Lead-in и Lead-out : Нет
Заполнение пропущенных сэмплов тишиной : Да
Удаление блоков с тишиной в начале и конце : Нет
При вычислениях CRC использовались нулевые сэмплы : Да
Интерфейс : Встроенный Win32-интерфейс для Win NT/2000

Выходной формат : Пользовательский кодировщик
Выбранный битрейт : 128 kBit/s
Качество : Высокий
Добавление ID3-тега : Нет
Утилита сжатия : C:\Program Files (x86)\Exact Audio Copy\Flac\flac.exe
Дополнительные параметры : -V -8 -T “Date=%year%” -T “Genre=%genre%” %source%

TOC извлечённого CD

Трек | Старт | Длительность | Начальный сектор | Конечный сектор
———————————————————————
1 | 0:00.00 | 4:36.12 | 0 | 20711
2 | 4:36.12 | 3:43.15 | 20712 | 37451
3 | 8:19.27 | 3:40.58 | 37452 | 54009
4 | 12:00.10 | 4:26.60 | 54010 | 74019
5 | 16:26.70 | 5:41.57 | 74020 | 99651
6 | 22:08.52 | 4:26.38 | 99652 | 119639
7 | 26:35.15 | 4:22.07 | 119640 | 139296
8 | 30:57.22 | 5:06.65 | 139297 | 162311
9 | 36:04.12 | 3:56.73 | 162312 | 180084
10 | 40:01.10 | 5:28.55 | 180085 | 204739
11 | 45:29.65 | 3:15.55 | 204740 | 219419
12 | 48:45.45 | 4:06.10 | 219420 | 237879

Характеристики диапазона извлечения и сообщения об ошибках

Выбранный диапазон

Имя файла D:\Музыка\torrents\Aerosmith – Discography\Compilations\Aerosmith (1994) – Pandora’s Toys\Aerosmith – Pandora’s Toys.wav

Пиковый уровень 100.0 %
Скорость извлечения 1.2 X
Качество диапазона 100.0 %
CRC теста CC04F050
CRC копии CC04F050
Копирование… OK

Ошибок не произошло

Конец отчёта

==== Контрольная сумма отчёта 856081AB54E7A3E00D0442A3BF36EA2EF5E8EBEE1CB7DA78D3CB967C8E3A214E ====

Exact Audio Copy V1.0 beta 2 from 29. April 2011

Отчёт EAC об извлечении, выполненном 30. мая 2013, 23:04

Aerosmith / The Story of Aerosmith

Дисковод: MATSHITADVD-RAM UJ8A0AS Adapter: 1 ID: 0

Режим чтения : Достоверность
Использование точного потока : Да
Отключение кэша аудио : Да
Использование указателей C2 : Нет

Коррекция смещения при чтении : 102
Способность читать области Lead-in и Lead-out : Нет
Заполнение пропущенных сэмплов тишиной : Да
Удаление блоков с тишиной в начале и конце : Нет
При вычислениях CRC использовались нулевые сэмплы : Да
Интерфейс : Встроенный Win32-интерфейс для Win NT/2000

Выходной формат : Пользовательский кодировщик
Выбранный битрейт : 128 kBit/s
Качество : Высокий
Добавление ID3-тега : Нет
Утилита сжатия : C:\Program Files (x86)\Exact Audio Copy\Flac\flac.exe
Дополнительные параметры : -V -8 -T “Date=%year%” -T “Genre=%genre%” %source%

TOC извлечённого CD

Трек | Старт | Длительность | Начальный сектор | Конечный сектор
———————————————————————
1 | 0:00.00 | 38:02.65 | 0 | 171214

Характеристики диапазона извлечения и сообщения об ошибках

Выбранный диапазон

Имя файла D:\Музыка\torrents\Aerosmith – Discography\Compilations\Aerosmith (1994) – Pandora’s Toys\CD\Aerosmith – The Story of Aerosmith.wav

Пиковый уровень 97.7 %
Скорость извлечения 1.1 X
Качество диапазона 99.9 %
CRC теста 2846B40A
CRC копии 2846B40A
Копирование… OK

Ошибок не произошло

Конец отчёта

==== Контрольная сумма отчёта 0ADE0E6D94703CE0D26B8C6F826E9D5D1F072C69EDCFDFC0C2B55AD9612339CC ====

REM GENRE “Hard Rock”
REM DATE 1994
REM DISCID AA0C630C
REM COMMENT “ExactAudioCopy v1.0b2”
PERFORMER “Aerosmith”
TITLE “Pandora’s Toys [Austria 476956 2]”
FILE “Aerosmith – Pandora’s Toys.flac” WAVE
TRACK 01 AUDIO
TITLE “Sweet Emotion”
PERFORMER “Aerosmith”
INDEX 01 00:00:00
TRACK 02 AUDIO
TITLE “Draw The Line”
PERFORMER “Aerosmith”
INDEX 00 04:35:52
INDEX 01 04:36:12
TRACK 03 AUDIO
TITLE “Walk This Way”
PERFORMER “Aerosmith”
INDEX 00 08:19:00
INDEX 01 08:19:27
TRACK 04 AUDIO
TITLE “Dream On”
PERFORMER “Aerosmith”
INDEX 00 11:59:50
INDEX 01 12:00:10
TRACK 05 AUDIO
TITLE “Train Kept A Rollin'”
PERFORMER “Aerosmith”
INDEX 00 16:26:35
INDEX 01 16:26:70
TRACK 06 AUDIO
TITLE “Mama Kin”
PERFORMER “Aerosmith”
INDEX 00 22:08:10
INDEX 01 22:08:52
TRACK 07 AUDIO
TITLE “Nobody’s Fault”
PERFORMER “Aerosmith”
INDEX 00 26:34:32
INDEX 01 26:35:15
TRACK 08 AUDIO
TITLE “Seasons Of Wither”
PERFORMER “Aerosmith”
INDEX 00 30:56:40
INDEX 01 30:57:22
TRACK 09 AUDIO
TITLE “Big Ten – Inch Record”
PERFORMER “Aerosmith”
INDEX 00 36:03:60
INDEX 01 36:04:12
TRACK 10 AUDIO
TITLE “All Your Love”
PERFORMER “Aerosmith”
INDEX 00 40:00:52
INDEX 01 40:01:10
TRACK 11 AUDIO
TITLE “Helter Skelter”
PERFORMER “Aerosmith”
INDEX 00 45:29:35
INDEX 01 45:29:65
TRACK 12 AUDIO
TITLE “Chip Away The Stone”
PERFORMER “Aerosmith”
INDEX 00 48:45:07
INDEX 01 48:45:45

REM GENRE “Hard Rock”
REM DATE 1994
REM DISCID 0208EA01
REM COMMENT “ExactAudioCopy v1.0b2”
PERFORMER “Aerosmith”
TITLE “The Story of Aerosmith”
FILE “Aerosmith – The Story of Aerosmith.flac” WAVE
TRACK 01 AUDIO
TITLE “The Story of Aerosmith”
PERFORMER “Aerosmith”
INDEX 01 00:00:00

Leave a Reply

Your email address will not be published. Required fields are marked *

This site uses Akismet to reduce spam. Learn how your comment data is processed.