Aerosmith – Pandoras Box (Japanese Edition)




Artist: Aerosmith
Year: 1991
Genre: Rock
Notes: Discogs
Add. Notes: Japanese Edition
Cover incl.: Yes
Encoder: FLAC
Bitrate: ~800 kBit/s (44.1 kHz/16 Bit/s)
Log & Cue incl.: Yes
Size: 1785,22 MB
Password: “slam” (without ” “)


All Downloads/Hosters are compatible

Download 1
Turbobit.net
Rapidgator.net
UploadEver.com
KatFile.com
UsersDrive.com
Download 2
Turbobit.net
Rapidgator.net
UploadEver.com
KatFile.com
UsersDrive.com
Download 3
Turbobit.net
Rapidgator.net
UploadEver.com
KatFile.com
UsersDrive.com

Tracklist:

1-01 - When I Needed You 	2:34
1-02 - Make It 	3:45
1-03 - Movin' Out 	5:42
1-04 - One Way Street 	6:59
1-05 - On The Road Again 	3:36
1-06 - Mama Kin 	4:25
1-07 - Same Old Song And Dance 	3:53
1-08 - Train Kept A Rollin' 	5:33
1-09 - Seasons Of Wither 	5:39
1-10 - Write Me A Letter 	4:18
1-11 - Dream On 	4:25
1-12 - Pandora's Box 	5:42
1-13 - Rattlesnake Shake 	10:28
1-14 - Walkin' The Dog 	3:13
1-15 - Lord Of The Thighs 	7:13
2-01 - Toys In The Attic 	3:05
2-02 - Round And Round 	5:02
2-03 - Krawhitham 	3:59
2-04 - You See Me Crying 	5:12
2-05 - Sweet Emotion 	4:34
2-06 - No More No More 	4:33
2-07 - Walk This Way 	3:40
2-08 - I Wanna Know Why 	3:04
2-09 - Big Ten-Inch Record 	4:01
2-10 - Rats In The Cellar 	4:06
2-11 - Last Child 	3:52
2-12 - All Your Love 	5:27
2-13 - Soul Saver 	0:53
2-14 - Nobody's Fault 	4:22
2-15 - Lick And A Promise 	3:05
2-16 - Adam's Apple 	4:48
2-17 - Draw The Line 	3:43
2-18 - Critical Mass 	4:51
3-01 - Kings And Queens 	5:31
3-02 - Milkcow Blues 	4:14
3-03 - I Live In Connecticut 	0:56
3-04 - Three Mile Smile 	3:44
3-05 - Let It Slide 	2:54
3-06 - Cheese Cake 	4:15
3-07 - Bone To Bone (Coney Island Fish Boy) 	2:59
3-08 - No Surprize 	4:26
3-09 - Come Together 	3:44
3-10 - Downtown Charlie 	2:35
3-11 - Sharpshooter 	5:29
3-12 - Shit House Shuffle 	0:35
3-13 - South Station Blues 	4:10
3-14 - Riff & Roll 	3:16
3-15 - Jailbait 	4:38
3-16 - Major Barbara 	5:05
3-17 - Chip Away The Stone 	4:06
3-18 - Helter Skelter 	3:13
3-19 - Back In The Saddle 	4:40

EAC-Log, CUE-Sheed & NFO:

Click to open spoiler
Exact Audio Copy V1.0 beta 3 from 29. August 2011

EAC extraction logfile from 15. September 2013, 23:14

Aerosmith / Pandora’s Box

Used drive : Optiarc DVD-ROM DDU1675S Adapter: 3 ID: 0

Read mode : Secure
Utilize accurate stream : Yes
Defeat audio cache : Yes
Make use of C2 pointers : No

Read offset correction : 6
Overread into Lead-In and Lead-Out : No
Fill up missing offset samples with silence : Yes
Delete leading and trailing silent blocks : No
Null samples used in CRC calculations : Yes
Used interface : Native Win32 interface for Win NT & 2000

Used output format : User Defined Encoder
Selected bitrate : 1024 kBit/s
Quality : High
Add ID3 tag : No
Command line compressor : C:\Program Files (x86)\Exact Audio Copy\Flac\flac.exe
Additional command line options : -V -8 -T “Date=%year%” -T “Genre=%genre%” %source%

TOC of the extracted CD

Track | Start | Length | Start sector | End sector
———————————————————
1 | 0:00.00 | 2:36.70 | 0 | 11769
2 | 2:36.70 | 3:47.30 | 11770 | 28824
3 | 6:24.25 | 5:43.22 | 28825 | 54571
4 | 12:07.47 | 7:02.48 | 54572 | 86269
5 | 19:10.20 | 3:37.30 | 86270 | 102574
6 | 22:47.50 | 4:27.22 | 102575 | 122621
7 | 27:14.72 | 3:54.60 | 122622 | 140231
8 | 31:09.57 | 5:33.23 | 140232 | 165229
9 | 36:43.05 | 5:40.55 | 165230 | 190784
10 | 42:23.60 | 4:19.47 | 190785 | 210256
11 | 46:43.32 | 4:27.58 | 210257 | 230339
12 | 51:11.15 | 5:44.50 | 230340 | 256189
13 | 56:55.65 | 10:27.72 | 256190 | 303286
14 | 67:23.62 | 3:15.23 | 303287 | 317934
15 | 70:39.10 | 7:13.65 | 317935 | 350474

Range status and errors

Selected range

Filename F:\Torrent\Aerosmith – Pandora’s Box (Sony Music Entertainment Japan, SRCS 7321) (1991)\CD-1\Aerosmith – Pandora’s Box (CD-1).wav

Peak level 97.7 %
Extraction speed 9.5 X
Range quality 100.0 %
Test CRC 8018D2DF
Copy CRC 8018D2DF
Copy OK

No errors occurred

AccurateRip summary

Track 1 accurately ripped (confidence 2) [81103097] (AR v1)
Track 2 accurately ripped (confidence 2) [F4C593E0] (AR v1)
Track 3 accurately ripped (confidence 2) [24BFB392] (AR v1)
Track 4 accurately ripped (confidence 2) [C80CB818] (AR v1)
Track 5 accurately ripped (confidence 2) [D279D3A5] (AR v1)
Track 6 accurately ripped (confidence 2) [E0D8DB40] (AR v1)
Track 7 accurately ripped (confidence 2) [CE4E75F1] (AR v1)
Track 8 accurately ripped (confidence 2) [E2255C09] (AR v1)
Track 9 accurately ripped (confidence 2) [5FD5D118] (AR v1)
Track 10 accurately ripped (confidence 2) [31788F45] (AR v1)
Track 11 accurately ripped (confidence 2) [C0DAEEF9] (AR v1)
Track 12 accurately ripped (confidence 2) [CB47A9C5] (AR v1)
Track 13 accurately ripped (confidence 2) [F6E93E8E] (AR v1)
Track 14 accurately ripped (confidence 2) [236AA21A] (AR v1)
Track 15 accurately ripped (confidence 2) [1ADCBE6B] (AR v1)

All tracks accurately ripped

End of status report

—- CUETools DB Plugin V2.1.4

[CTDB TOCID: Z9fmflV3rkg0f0JZKisrKAEMGzQ-] found
Submit result: Z9fmflV3rkg0f0JZKisrKAEMGzQ- has been confirmed
Track | CTDB Status
1 | (3/3) Accurately ripped
2 | (3/3) Accurately ripped
3 | (3/3) Accurately ripped
4 | (3/3) Accurately ripped
5 | (3/3) Accurately ripped
6 | (3/3) Accurately ripped
7 | (3/3) Accurately ripped
8 | (3/3) Accurately ripped
9 | (3/3) Accurately ripped
10 | (3/3) Accurately ripped
11 | (3/3) Accurately ripped
12 | (3/3) Accurately ripped
13 | (3/3) Accurately ripped
14 | (3/3) Accurately ripped
15 | (3/3) Accurately ripped

==== Log checksum E7253ABCE4B2646D10E47FADB43471972A7D6D2C2B60444F92E6E5987316F037 ====

Exact Audio Copy V1.0 beta 3 from 29. August 2011

EAC extraction logfile from 15. September 2013, 23:38

Aerosmith / Pandora’s Box

Used drive : Optiarc DVD-ROM DDU1675S Adapter: 3 ID: 0

Read mode : Secure
Utilize accurate stream : Yes
Defeat audio cache : Yes
Make use of C2 pointers : No

Read offset correction : 6
Overread into Lead-In and Lead-Out : No
Fill up missing offset samples with silence : Yes
Delete leading and trailing silent blocks : No
Null samples used in CRC calculations : Yes
Used interface : Native Win32 interface for Win NT & 2000

Used output format : User Defined Encoder
Selected bitrate : 1024 kBit/s
Quality : High
Add ID3 tag : No
Command line compressor : C:\Program Files (x86)\Exact Audio Copy\Flac\flac.exe
Additional command line options : -V -8 -T “Date=%year%” -T “Genre=%genre%” %source%

TOC of the extracted CD

Track | Start | Length | Start sector | End sector
———————————————————
1 | 0:00.00 | 3:07.32 | 0 | 14056
2 | 3:07.32 | 5:04.13 | 14057 | 36869
3 | 8:11.45 | 4:00.52 | 36870 | 54921
4 | 12:12.22 | 5:13.73 | 54922 | 78469
5 | 17:26.20 | 4:36.35 | 78470 | 99204
6 | 22:02.55 | 4:34.40 | 99205 | 119794
7 | 26:37.20 | 3:41.55 | 119795 | 136424
8 | 30:19.00 | 3:04.40 | 136425 | 150264
9 | 33:23.40 | 4:03.22 | 150265 | 168511
10 | 37:26.62 | 4:07.53 | 168512 | 187089
11 | 41:34.40 | 3:54.25 | 187090 | 204664
12 | 45:28.65 | 5:29.52 | 204665 | 229391
13 | 50:58.42 | 0:52.38 | 229392 | 233329
14 | 51:51.05 | 4:24.27 | 233330 | 253156
15 | 56:15.32 | 3:06.55 | 253157 | 267161
16 | 59:22.12 | 4:50.13 | 267162 | 288924
17 | 64:12.25 | 3:44.20 | 288925 | 305744
18 | 67:56.45 | 4:53.17 | 305745 | 327736

Range status and errors

Selected range

Filename F:\Torrent\Aerosmith – Pandora’s Box (Sony Music Entertainment Japan, SRCS 7321) (1991)\CD-2\Aerosmith – Pandora’s Box (CD-2).wav

Peak level 94.1 %
Extraction speed 9.4 X
Range quality 100.0 %
Test CRC 995C6007
Copy CRC 995C6007
Copy OK

No errors occurred

AccurateRip summary

Track 1 accurately ripped (confidence 2) [FC50E66A] (AR v2)
Track 2 accurately ripped (confidence 2) [EF3A4B5E] (AR v2)
Track 3 accurately ripped (confidence 2) [C4D3430B] (AR v2)
Track 4 accurately ripped (confidence 2) [78F3C7BD] (AR v2)
Track 5 accurately ripped (confidence 2) [49E0A7AE] (AR v2)
Track 6 accurately ripped (confidence 2) [D888691F] (AR v2)
Track 7 accurately ripped (confidence 2) [5EF1E273] (AR v2)
Track 8 accurately ripped (confidence 2) [B82269D5] (AR v2)
Track 9 accurately ripped (confidence 2) [FACD0B92] (AR v2)
Track 10 accurately ripped (confidence 2) [9EAA1D8B] (AR v2)
Track 11 accurately ripped (confidence 2) [85C7DE98] (AR v2)
Track 12 accurately ripped (confidence 2) [08F4BF73] (AR v2)
Track 13 accurately ripped (confidence 2) [A637B3A9] (AR v2)
Track 14 accurately ripped (confidence 2) [DF545BD1] (AR v2)
Track 15 accurately ripped (confidence 2) [7F28D150] (AR v2)
Track 16 accurately ripped (confidence 2) [0E2533F6] (AR v2)
Track 17 accurately ripped (confidence 2) [50933397] (AR v2)
Track 18 accurately ripped (confidence 2) [EF6AA616] (AR v2)

All tracks accurately ripped

End of status report

—- CUETools DB Plugin V2.1.4

[CTDB TOCID: pIPUHA4_.JVeOdCWx7VdGj86uko-] found
Submit result: pIPUHA4_.JVeOdCWx7VdGj86uko- has been confirmed
Track | CTDB Status
1 | (3/3) Accurately ripped
2 | (3/3) Accurately ripped
3 | (3/3) Accurately ripped
4 | (3/3) Accurately ripped
5 | (3/3) Accurately ripped
6 | (3/3) Accurately ripped
7 | (3/3) Accurately ripped
8 | (3/3) Accurately ripped
9 | (3/3) Accurately ripped
10 | (3/3) Accurately ripped
11 | (3/3) Accurately ripped
12 | (3/3) Accurately ripped
13 | (3/3) Accurately ripped
14 | (3/3) Accurately ripped
15 | (3/3) Accurately ripped
16 | (3/3) Accurately ripped
17 | (3/3) Accurately ripped
18 | (3/3) Accurately ripped

==== Log checksum D0CE22ECF998D9A83D691761406018A1AC1611AEC105D8087C4A55879EA439DC ====

Exact Audio Copy V1.0 beta 3 from 29. August 2011

EAC extraction logfile from 16. September 2013, 0:06

Aerosmith / Pandora’s Box

Used drive : Optiarc DVD-ROM DDU1675S Adapter: 3 ID: 0

Read mode : Secure
Utilize accurate stream : Yes
Defeat audio cache : Yes
Make use of C2 pointers : No

Read offset correction : 6
Overread into Lead-In and Lead-Out : No
Fill up missing offset samples with silence : Yes
Delete leading and trailing silent blocks : No
Null samples used in CRC calculations : Yes
Used interface : Native Win32 interface for Win NT & 2000

Used output format : User Defined Encoder
Selected bitrate : 1024 kBit/s
Quality : High
Add ID3 tag : No
Command line compressor : C:\Program Files (x86)\Exact Audio Copy\Flac\flac.exe
Additional command line options : -V -8 -T “Date=%year%” -T “Genre=%genre%” %source%

TOC of the extracted CD

Track | Start | Length | Start sector | End sector
———————————————————
1 | 0:00.00 | 5:33.37 | 0 | 25011
2 | 5:33.37 | 4:15.50 | 25012 | 44186
3 | 9:49.12 | 0:55.70 | 44187 | 48381
4 | 10:45.07 | 3:46.08 | 48382 | 65339
5 | 14:31.15 | 2:55.52 | 65340 | 78516
6 | 17:26.67 | 4:16.58 | 78517 | 97774
7 | 21:43.50 | 3:01.50 | 97775 | 111399
8 | 24:45.25 | 4:27.50 | 111400 | 131474
9 | 29:13.00 | 3:46.47 | 131475 | 148471
10 | 32:59.47 | 2:34.13 | 148472 | 160034
11 | 35:33.60 | 5:32.37 | 160035 | 184971
12 | 41:06.22 | 0:36.15 | 184972 | 187686
13 | 41:42.37 | 4:11.28 | 187687 | 206539
14 | 45:53.65 | 3:18.05 | 206540 | 221394
15 | 49:11.70 | 4:40.30 | 221395 | 242424
16 | 53:52.25 | 5:06.15 | 242425 | 265389
17 | 58:58.40 | 4:07.35 | 265390 | 283949
18 | 63:06.00 | 3:16.47 | 283950 | 298696
19 | 66:22.47 | 4:49.45 | 298697 | 320416
20 | 71:12.17 | 3:45.65 | 320417 | 337356

Range status and errors

Selected range

Filename F:\Torrent\Aerosmith – Pandora’s Box (Sony Music Entertainment Japan, SRCS 7321) (1991)\CD-3\Aerosmith – Pandora’s Box (CD-3).wav

Peak level 97.7 %
Extraction speed 9.5 X
Range quality 100.0 %
Test CRC 9A5AD7DD
Copy CRC 9A5AD7DD
Copy OK

No errors occurred

AccurateRip summary

Track 1 accurately ripped (confidence 2) [3C8AB09E] (AR v1)
Track 2 accurately ripped (confidence 2) [1B0CE0BD] (AR v1)
Track 3 accurately ripped (confidence 2) [86159C11] (AR v1)
Track 4 accurately ripped (confidence 2) [7D558C77] (AR v1)
Track 5 accurately ripped (confidence 2) [5CB8F320] (AR v1)
Track 6 accurately ripped (confidence 2) [872102D4] (AR v1)
Track 7 accurately ripped (confidence 2) [7A8B4005] (AR v1)
Track 8 accurately ripped (confidence 2) [D4F39CBD] (AR v1)
Track 9 accurately ripped (confidence 2) [B9C8D7BF] (AR v1)
Track 10 accurately ripped (confidence 2) [19E7AB09] (AR v1)
Track 11 accurately ripped (confidence 2) [FC484DA1] (AR v1)
Track 12 accurately ripped (confidence 2) [278E47B8] (AR v1)
Track 13 accurately ripped (confidence 2) [D3C5C198] (AR v1)
Track 14 accurately ripped (confidence 2) [CBE9BC9B] (AR v1)
Track 15 accurately ripped (confidence 2) [BF41648A] (AR v1)
Track 16 accurately ripped (confidence 2) [EDFB2117] (AR v1)
Track 17 accurately ripped (confidence 2) [819EE16C] (AR v1)
Track 18 accurately ripped (confidence 2) [B216A1BF] (AR v1)
Track 19 accurately ripped (confidence 2) [1562BFBF] (AR v1)
Track 20 accurately ripped (confidence 2) [C1E32919] (AR v1)

All tracks accurately ripped

End of status report

—- CUETools DB Plugin V2.1.4

[CTDB TOCID: 1YEbJLVEveV5M2K6WbUtQYmOlCY-] found
Submit result: 1YEbJLVEveV5M2K6WbUtQYmOlCY- has been confirmed
Track | CTDB Status
1 | (3/3) Accurately ripped
2 | (3/3) Accurately ripped
3 | (3/3) Accurately ripped
4 | (3/3) Accurately ripped
5 | (3/3) Accurately ripped
6 | (3/3) Accurately ripped
7 | (3/3) Accurately ripped
8 | (3/3) Accurately ripped
9 | (3/3) Accurately ripped
10 | (3/3) Accurately ripped
11 | (3/3) Accurately ripped
12 | (3/3) Accurately ripped
13 | (3/3) Accurately ripped
14 | (3/3) Accurately ripped
15 | (3/3) Accurately ripped
16 | (3/3) Accurately ripped
17 | (3/3) Accurately ripped
18 | (3/3) Accurately ripped
19 | (3/3) Accurately ripped
20 | (3/3) Accurately ripped

==== Log checksum 12150C8CF540E885D0C367717D210A567BE3CE53ADC30767A3A451B8DD5FA9DC ====

REM DATE 1991
REM GENRE Hard Rock
REM DISCID CC12410F
REM COMMENT “ExactAudioCopy v1.0b3”
PERFORMER “Aerosmith”
TITLE “Pandora’s Box [Japan SRCS 7321]”
FILE “Aerosmith – Pandora’s Box (CD-1).flac” WAVE
TRACK 01 AUDIO
TITLE “When I Needed You”
PERFORMER “Chain Reaction”
INDEX 01 00:00:00
TRACK 02 AUDIO
TITLE “Make It”
PERFORMER “Aerosmith”
INDEX 00 02:36:02
INDEX 01 02:36:70
TRACK 03 AUDIO
TITLE “Movin’ Out (Previously unreleased alternate version)”
PERFORMER “Aerosmith”
INDEX 00 06:23:42
INDEX 01 06:24:25
TRACK 04 AUDIO
TITLE “One Way Street”
PERFORMER “Aerosmith”
INDEX 00 12:06:65
INDEX 01 12:07:47
TRACK 05 AUDIO
TITLE “On The Road Again (Unreleased rehearsal pre-production jam)”
PERFORMER “Aerosmith”
INDEX 00 19:09:40
INDEX 01 19:10:20
TRACK 06 AUDIO
TITLE “Mama Kin”
PERFORMER “Aerosmith”
INDEX 01 22:47:50
TRACK 07 AUDIO
TITLE “Same Old Song And Dance”
PERFORMER “Aerosmith”
INDEX 00 27:14:05
INDEX 01 27:14:72
TRACK 08 AUDIO
TITLE “Train Kept A Rollin'”
PERFORMER “Aerosmith”
INDEX 00 31:08:70
INDEX 01 31:09:57
TRACK 09 AUDIO
TITLE “Seasons Of Wither”
PERFORMER “Aerosmith”
INDEX 01 36:43:05
TRACK 10 AUDIO
TITLE “Write Me A Letter (Unreleased live version)”
PERFORMER “Aerosmith”
INDEX 00 42:23:05
INDEX 01 42:23:60
TRACK 11 AUDIO
TITLE “Dream On”
PERFORMER “Aerosmith”
INDEX 00 46:42:42
INDEX 01 46:43:32
TRACK 12 AUDIO
TITLE “Pandora’s Box”
PERFORMER “Aerosmith”
INDEX 00 51:10:20
INDEX 01 51:11:15
TRACK 13 AUDIO
TITLE “Rattlesnake Shake (Live radio broadcast WKRQ, Cincinatti)”
PERFORMER “Aerosmith”
INDEX 00 56:55:02
INDEX 01 56:55:65
TRACK 14 AUDIO
TITLE “Walkin’ The Dog (Live radio broadcast WKRQ, Cincinatti)”
PERFORMER “Aerosmith”
INDEX 01 67:23:62
TRACK 15 AUDIO
TITLE “Lord Of The Thighs (‘TEXXAS JAM’ live recording)”
PERFORMER “Aerosmith”
INDEX 00 70:38:15
INDEX 01 70:39:10

REM DATE 1991
REM GENRE Hard Rock
REM DISCID 04111112
REM COMMENT “ExactAudioCopy v1.0b3”
PERFORMER “Aerosmith”
TITLE “Pandora’s Box”
FILE “Aerosmith – Pandora’s Box (CD-2).flac” WAVE
TRACK 01 AUDIO
TITLE “Toys In The Attic”
PERFORMER “Aerosmith”
INDEX 01 00:00:00
TRACK 02 AUDIO
TITLE “Round And Round”
PERFORMER “Aerosmith”
INDEX 01 03:07:32
TRACK 03 AUDIO
TITLE “Krawhitham (Previously unreleased instrumental)”
PERFORMER “Aerosmith”
INDEX 01 08:11:45
TRACK 04 AUDIO
TITLE “You See Me Crying”
PERFORMER “Aerosmith”
INDEX 01 12:12:22
TRACK 05 AUDIO
TITLE “Sweet Emotion”
PERFORMER “Aerosmith”
INDEX 01 17:26:20
TRACK 06 AUDIO
TITLE “No More No More”
PERFORMER “Aerosmith”
INDEX 01 22:02:55
TRACK 07 AUDIO
TITLE “Walk This Way”
PERFORMER “Aerosmith”
INDEX 01 26:37:20
TRACK 08 AUDIO
TITLE “I Wanna Know Why (‘TEXXAS JAM’ live recording)”
PERFORMER “Aerosmith”
INDEX 01 30:19:00
TRACK 09 AUDIO
TITLE “Big Ten-Inch Record (‘TEXXAS JAM’ live recording)”
PERFORMER “Aerosmith”
INDEX 01 33:23:40
TRACK 10 AUDIO
TITLE “Rats In The Cellar”
PERFORMER “Aerosmith”
INDEX 01 37:26:62
TRACK 11 AUDIO
TITLE “Last Child (Remix)”
PERFORMER “Aerosmith”
INDEX 01 41:34:40
TRACK 12 AUDIO
TITLE “All Your Love (Previously unreleased)”
PERFORMER “Aerosmith”
INDEX 01 45:28:65
TRACK 13 AUDIO
TITLE “Soul Saver (Previously unreleased rehearsal)”
PERFORMER “Aerosmith”
INDEX 01 50:58:42
TRACK 14 AUDIO
TITLE “Nobody’s Fault”
PERFORMER “Aerosmith”
INDEX 01 51:51:05
TRACK 15 AUDIO
TITLE “Lick And A Promise”
PERFORMER “Aerosmith”
INDEX 01 56:15:32
TRACK 16 AUDIO
TITLE “Adam’s Apple (Unreleased live version)”
PERFORMER “Aerosmith”
INDEX 01 59:22:12
TRACK 17 AUDIO
TITLE “Draw The Line (Remix)”
PERFORMER “Aerosmith”
INDEX 01 64:12:25
TRACK 18 AUDIO
TITLE “Critical Mass”
PERFORMER “Aerosmith”
INDEX 01 67:56:45

REM DATE 1991
REM GENRE Hard Rock
REM DISCID 3A119214
REM COMMENT “ExactAudioCopy v1.0b3”
PERFORMER “Aerosmith”
TITLE “Pandora’s Box”
FILE “Aerosmith – Pandora’s Box (CD-3).flac” WAVE
TRACK 01 AUDIO
TITLE “Kings And Queens (Unreleased live version)”
PERFORMER “Aerosmith”
INDEX 01 00:00:00
TRACK 02 AUDIO
TITLE “Milkcow Blues”
PERFORMER “Aerosmith”
INDEX 01 05:33:37
TRACK 03 AUDIO
TITLE “I Live In Connecticut (Previously unreleased)”
PERFORMER “Aerosmith”
INDEX 01 09:49:12
TRACK 04 AUDIO
TITLE “Three Mile Smile”
PERFORMER “Aerosmith”
INDEX 01 10:45:07
TRACK 05 AUDIO
TITLE “Let It Slide (Previously unreleased)”
PERFORMER “Aerosmith”
INDEX 01 14:31:15
TRACK 06 AUDIO
TITLE “Cheese Cake”
PERFORMER “Aerosmith”
INDEX 01 17:26:67
TRACK 07 AUDIO
TITLE “Bone To Bone (Coney Island White Fish Boy)”
PERFORMER “Aerosmith”
INDEX 01 21:43:50
TRACK 08 AUDIO
TITLE “No Surprize”
PERFORMER “Aerosmith”
INDEX 01 24:45:25
TRACK 09 AUDIO
TITLE “Come Together”
PERFORMER “Aerosmith”
INDEX 01 29:13:00
TRACK 10 AUDIO
TITLE “Downtown Charlie (Unreleased jam)”
PERFORMER “Aerosmith”
INDEX 01 32:59:47
TRACK 11 AUDIO
TITLE “Sharpshooter”
PERFORMER “Whitford / St. Holmes”
INDEX 01 35:33:60
TRACK 12 AUDIO
TITLE “Shit House Shuffle (Previously unreleased)”
PERFORMER “Aerosmith”
INDEX 01 41:06:22
TRACK 13 AUDIO
TITLE “South Station Blues”
PERFORMER “The Joe Perry Project”
INDEX 01 41:42:37
TRACK 14 AUDIO
TITLE “Riff & Roll (Unreleased jam)”
PERFORMER “Aerosmith”
INDEX 01 45:53:65
TRACK 15 AUDIO
TITLE “Jailbait”
PERFORMER “Aerosmith”
INDEX 01 49:11:70
TRACK 16 AUDIO
TITLE “Major Barbara (Previously unreleased alternate version)”
PERFORMER “Aerosmith”
INDEX 01 53:52:25
TRACK 17 AUDIO
TITLE “Chip Away The Stone (Previously unreleased alternate version)”
PERFORMER “Aerosmith”
INDEX 01 58:58:40
TRACK 18 AUDIO
TITLE “Helter Skelter (Previously unreleased)”
PERFORMER “Aerosmith”
INDEX 01 63:06:00
TRACK 19 AUDIO
TITLE “Back In The Saddle”
PERFORMER “Aerosmith”
INDEX 01 66:22:47
TRACK 20 AUDIO
TITLE “Circle Jerk”
PERFORMER “Aerosmith”
INDEX 00 71:03:40
INDEX 01 71:12:17

Leave a Reply

Your email address will not be published. Required fields are marked *

Enter the text from the image below
 

This site uses Akismet to reduce spam. Learn how your comment data is processed.