Aerosmith – O, Yeah! Ultimate Aerosmith Hits




Artist: Aerosmith
Year: 2002
Genre: Rock
Notes: Discogs
Add. Notes:
Cover incl.: Yes
Encoder: FLAC
Bitrate: ~1000 kBit/s (44.1 kHz/16 Bit/s)
Log & Cue incl.: Yes
Size: 1108,39 MB
Password: “slam” (without ” “)


All Downloads/Hosters are compatible

Download 1
Turbobit.net
Rapidgator.net
KatFile.com
UploadRar.com
Download 2
Turbobit.net
Rapidgator.net
KatFile.com
UploadRar.com
Download 3
Turbobit.net
Rapidgator.net
KatFile.com
UploadRar.com

Tracklist:

1-01. Mama Kin. 
1-02. Dream On. 
1-03. Same Old Song And Dance. 
1-04. Seasons Of Wither. 
1-05. Walk This Way. 
1-06. Big Ten Inch Record. 
1-07. Sweet Emotion. 
1-08. Last Child. 
1-09. Back In The Saddle. 
1-10. Draw The Line. 
1-11. Dude (Looks Like A Lady). 
1-12. Angel. 
1-13. Rag Doll. 
1-14. Janie's Got A Gun. 
1-15. Love In An Elevator. 
1-16. What It Takes. 
2-01. The Other Side. 
2-02. Livin' On The Edge. 
2-03. Cryin'. 
2-04. Amazing. 
2-05. Deuces Are Wild. 
2-06. Crazy. 
2-07. Falling In Love (Is Hard On The Knees). 
2-08. Pink (The South Beach Mix). 
2-09. I Don't Want To Miss A Thing. 
2-10. Jaded. 
2-11. Just Push Play (Radio Remix). 
2-12. Walk This Way (Performed by Run-D.M.C.). 
2-13. Girls Of Summer. 
2-14. Lay It Down. 
2-15. Come Together. 
2-16. Theme From Spider Man. 
2-17. Toys In The Attic

EAC-Log, CUE-Sheed & NFO:

Click to open spoiler
Exact Audio Copy V1.0 beta 3 from 29. August 2011

EAC extraction logfile from 24. September 2013, 13:49

Aerosmith / O, Yeah! Ultimate Aerosmith Hits

Used drive : Optiarc DVD-ROM DDU1675S Adapter: 3 ID: 0

Read mode : Secure
Utilize accurate stream : Yes
Defeat audio cache : Yes
Make use of C2 pointers : No

Read offset correction : 6
Overread into Lead-In and Lead-Out : No
Fill up missing offset samples with silence : Yes
Delete leading and trailing silent blocks : No
Null samples used in CRC calculations : Yes
Used interface : Native Win32 interface for Win NT & 2000

Used output format : User Defined Encoder
Selected bitrate : 1024 kBit/s
Quality : High
Add ID3 tag : No
Command line compressor : C:\Program Files (x86)\Exact Audio Copy\Flac\flac.exe
Additional command line options : -V -8 -T “Date=%year%” -T “Genre=%genre%” %source%

TOC of the extracted CD

Track | Start | Length | Start sector | End sector
———————————————————
1 | 0:00.00 | 4:26.05 | 0 | 19954
2 | 4:26.05 | 4:25.07 | 19955 | 39836
3 | 8:51.12 | 3:53.25 | 39837 | 57336
4 | 12:44.37 | 5:25.50 | 57337 | 81761
5 | 18:10.12 | 3:39.55 | 81762 | 98241
6 | 21:49.67 | 2:14.28 | 98242 | 108319
7 | 24:04.20 | 4:35.05 | 108320 | 128949
8 | 28:39.25 | 3:21.22 | 128950 | 144046
9 | 32:00.47 | 4:40.10 | 144047 | 165056
10 | 36:40.57 | 3:45.63 | 165057 | 181994
11 | 40:26.45 | 4:23.02 | 181995 | 201721
12 | 44:49.47 | 5:07.53 | 201722 | 224799
13 | 49:57.25 | 4:24.50 | 224800 | 244649
14 | 54:22.00 | 5:28.30 | 244650 | 269279
15 | 59:50.30 | 5:23.12 | 269280 | 293516
16 | 65:13.42 | 5:12.03 | 293517 | 316919

Range status and errors

Selected range

Filename F:\Torrent\Aerosmith – O, Yeah! Ultimate Aerosmith Hits (Sony Music, 5084672000)\CD-1\Aerosmith – O, Yeah! Ultimate Aerosmith Hits (CD-1).wav

Peak level 97.7 %
Extraction speed 9.2 X
Range quality 100.0 %
Test CRC FAD53BC0
Copy CRC FAD53BC0
Copy OK

No errors occurred

AccurateRip summary

Track 1 accurately ripped (confidence 4) [DBA83F66] (AR v2)
Track 2 accurately ripped (confidence 4) [7561113E] (AR v2)
Track 3 accurately ripped (confidence 4) [98DF8559] (AR v2)
Track 4 accurately ripped (confidence 4) [6C5712B6] (AR v2)
Track 5 accurately ripped (confidence 4) [72370796] (AR v2)
Track 6 accurately ripped (confidence 4) [146EB28F] (AR v2)
Track 7 accurately ripped (confidence 4) [94BB82EC] (AR v2)
Track 8 accurately ripped (confidence 4) [C8D06907] (AR v2)
Track 9 accurately ripped (confidence 4) [6EA46F80] (AR v2)
Track 10 accurately ripped (confidence 4) [5DA32DF9] (AR v2)
Track 11 accurately ripped (confidence 4) [36A1B46D] (AR v2)
Track 12 accurately ripped (confidence 4) [BE088E29] (AR v2)
Track 13 accurately ripped (confidence 4) [3131DA9A] (AR v2)
Track 14 accurately ripped (confidence 4) [66C64BC7] (AR v2)
Track 15 accurately ripped (confidence 3) [7600D164] (AR v2)
Track 16 accurately ripped (confidence 4) [67270F5B] (AR v2)

All tracks accurately ripped

End of status report

—- CUETools DB Plugin V2.1.4

[CTDB TOCID: WnSuXRQLZFIkU50V2N0EtJmLyOU-] found
Submit result: WnSuXRQLZFIkU50V2N0EtJmLyOU- has been confirmed, WnSuXRQLZFIkU50V2N0EtJmLyOU- has been confirmed
Track | CTDB Status
1 | ( 33/100) Accurately ripped
2 | ( 33/100) Accurately ripped
3 | ( 33/100) Accurately ripped
4 | ( 33/100) Accurately ripped
5 | ( 33/100) Accurately ripped
6 | ( 33/100) Accurately ripped
7 | ( 33/100) Accurately ripped
8 | ( 33/100) Accurately ripped
9 | ( 33/100) Accurately ripped
10 | ( 33/100) Accurately ripped
11 | ( 33/100) Accurately ripped
12 | ( 33/100) Accurately ripped
13 | ( 33/100) Accurately ripped
14 | ( 33/100) Accurately ripped
15 | ( 33/100) Accurately ripped
16 | ( 33/100) Accurately ripped

==== Log checksum 0C2E383A28AC57A1D4A52EBB6F6C7202A5994C92869777F1666FB4C4B63621CD ====

Exact Audio Copy V1.0 beta 3 from 29. August 2011

EAC extraction logfile from 24. September 2013, 14:19

Aerosmith / O, Yeah! Ultimate Aerosmith Hits

Used drive : Optiarc DVD-ROM DDU1675S Adapter: 3 ID: 0

Read mode : Secure
Utilize accurate stream : Yes
Defeat audio cache : Yes
Make use of C2 pointers : No

Read offset correction : 6
Overread into Lead-In and Lead-Out : No
Fill up missing offset samples with silence : Yes
Delete leading and trailing silent blocks : No
Null samples used in CRC calculations : Yes
Used interface : Native Win32 interface for Win NT & 2000

Used output format : User Defined Encoder
Selected bitrate : 1024 kBit/s
Quality : High
Add ID3 tag : No
Command line compressor : C:\Program Files (x86)\Exact Audio Copy\Flac\flac.exe
Additional command line options : -V -8 -T “Date=%year%” -T “Genre=%genre%” %source%

TOC of the extracted CD

Track | Start | Length | Start sector | End sector
———————————————————
1 | 0:00.00 | 4:06.25 | 0 | 18474
2 | 4:06.25 | 6:21.22 | 18475 | 47071
3 | 10:27.47 | 5:08.38 | 47072 | 70209
4 | 15:36.10 | 5:55.47 | 70210 | 96881
5 | 21:31.57 | 3:36.68 | 96882 | 113149
6 | 25:08.50 | 5:17.17 | 113150 | 136941
7 | 30:25.67 | 3:28.38 | 136942 | 152579
8 | 33:54.30 | 3:54.40 | 152580 | 170169
9 | 37:48.70 | 4:59.47 | 170170 | 192641
10 | 42:48.42 | 3:35.35 | 192642 | 208801
11 | 46:24.02 | 3:12.68 | 208802 | 223269
12 | 49:36.70 | 5:11.45 | 223270 | 246639
13 | 54:48.40 | 3:15.00 | 246640 | 261264
14 | 58:03.40 | 3:50.47 | 261265 | 278561
15 | 61:54.12 | 3:45.48 | 278562 | 295484
16 | 65:39.60 | 2:57.67 | 295485 | 308826
17 | 68:37.52 | 3:05.10 | 308827 | 322711

Range status and errors

Selected range

Filename F:\Torrent\Aerosmith – O, Yeah! Ultimate Aerosmith Hits (Sony Music, 5084672000)\CD-2\Aerosmith – O, Yeah! Ultimate Aerosmith Hits (CD-2).wav

Peak level 98.9 %
Extraction speed 9.2 X
Range quality 100.0 %
Test CRC E1DE25A5
Copy CRC E1DE25A5
Copy OK

No errors occurred

AccurateRip summary

Track 1 accurately ripped (confidence 2) [F8AA54E7] (AR v1)
Track 2 accurately ripped (confidence 2) [8A20ED2C] (AR v1)
Track 3 cannot be verified as accurate (confidence 5) [B45BA08B], AccurateRip returned [87E79971] (AR v2)
Track 4 cannot be verified as accurate (confidence 5) [6634A8AE], AccurateRip returned [711FE3F5] (AR v2)
Track 5 cannot be verified as accurate (confidence 5) [A50492DD], AccurateRip returned [83D68A1C] (AR v2)
Track 6 cannot be verified as accurate (confidence 5) [8CC67DB0], AccurateRip returned [E852B83C] (AR v2)
Track 7 accurately ripped (confidence 2) [E84E09AF] (AR v1)
Track 8 accurately ripped (confidence 2) [AD1443DB] (AR v1)
Track 9 accurately ripped (confidence 2) [ED15A6B9] (AR v1)
Track 10 accurately ripped (confidence 2) [D94FEAB1] (AR v1)
Track 11 accurately ripped (confidence 2) [1BD67123] (AR v1)
Track 12 accurately ripped (confidence 2) [98216B6D] (AR v1)
Track 13 accurately ripped (confidence 2) [86A049FB] (AR v1)
Track 14 accurately ripped (confidence 2) [7F3F7142] (AR v1)
Track 15 cannot be verified as accurate (confidence 5) [B96A5691], AccurateRip returned [96751049] (AR v2)
Track 16 accurately ripped (confidence 2) [88A85C96] (AR v1)
Track 17 cannot be verified as accurate (confidence 5) [A5EA0602], AccurateRip returned [41055EE8] (AR v2)

11 трек(и) скопированы точно
6 трек(и) не удалось проверить на точность

Some tracks could not be verified as accurate

End of status report

—- CUETools DB Plugin V2.1.4

[CTDB TOCID: h3r7zpWDfRYBS4pjJvVJzH3jNmc-] found
Submit result: h3r7zpWDfRYBS4pjJvVJzH3jNmc- has been confirmed
Track | CTDB Status
1 | (12/12) Accurately ripped
2 | (12/12) Accurately ripped
3 | (12/12) Accurately ripped
4 | (12/12) Accurately ripped
5 | (12/12) Accurately ripped
6 | (12/12) Accurately ripped
7 | (12/12) Accurately ripped
8 | (12/12) Accurately ripped
9 | (12/12) Accurately ripped
10 | (12/12) Accurately ripped
11 | (12/12) Accurately ripped
12 | (12/12) Accurately ripped
13 | (12/12) Accurately ripped
14 | (12/12) Accurately ripped
15 | (12/12) Accurately ripped
16 | (12/12) Accurately ripped
17 | (10/12) Accurately ripped

==== Log checksum 20A17AF8383BD4058388715AE5CEF2484F8B4BCCC63F0704B995F4395E7BF752 ====

REM GENRE “Hard Rock”
REM DATE 2002
REM DISCID E3108110
REM COMMENT “ExactAudioCopy v1.0b3”
PERFORMER “Aerosmith”
TITLE “O, Yeah! Ultimate Aerosmith Hits [Australia 5084672000] (CD1)”
FILE “Aerosmith – O, Yeah! Ultimate Aerosmith Hits (CD-1).flac” WAVE
TRACK 01 AUDIO
TITLE “Mama Kin”
PERFORMER “Aerosmith”
INDEX 01 00:00:00
TRACK 02 AUDIO
TITLE “Dream On”
PERFORMER “Aerosmith”
INDEX 01 04:26:05
TRACK 03 AUDIO
TITLE “Same Old Song And Dance”
PERFORMER “Aerosmith”
INDEX 01 08:51:12
TRACK 04 AUDIO
TITLE “Seasons Of Wither”
PERFORMER “Aerosmith”
INDEX 01 12:44:37
TRACK 05 AUDIO
TITLE “Walk This Way”
PERFORMER “Aerosmith”
INDEX 01 18:10:12
TRACK 06 AUDIO
TITLE “Big Ten Inch Record”
PERFORMER “Aerosmith”
INDEX 01 21:49:67
TRACK 07 AUDIO
TITLE “Sweet Emotion”
PERFORMER “Aerosmith”
INDEX 00 24:02:65
INDEX 01 24:04:20
TRACK 08 AUDIO
TITLE “Last Child”
PERFORMER “Aerosmith”
INDEX 00 28:38:20
INDEX 01 28:39:25
TRACK 09 AUDIO
TITLE “Back In The Saddle”
PERFORMER “Aerosmith”
INDEX 00 31:59:37
INDEX 01 32:00:47
TRACK 10 AUDIO
TITLE “Draw The Line”
PERFORMER “Aerosmith”
INDEX 01 36:40:57
TRACK 11 AUDIO
TITLE “Dude (Looks Like A Lady)”
PERFORMER “Aerosmith”
INDEX 01 40:26:45
TRACK 12 AUDIO
TITLE “Angel”
PERFORMER “Aerosmith”
INDEX 01 44:49:47
TRACK 13 AUDIO
TITLE “Rag Doll”
PERFORMER “Aerosmith”
INDEX 01 49:57:25
TRACK 14 AUDIO
TITLE “Janie’s Got A Gun”
PERFORMER “Aerosmith”
INDEX 01 54:22:00
TRACK 15 AUDIO
TITLE “Love In An Elevator”
PERFORMER “Aerosmith”
INDEX 01 59:50:30
TRACK 16 AUDIO
TITLE “What It Takes”
PERFORMER “Aerosmith”
INDEX 00 65:12:27
INDEX 01 65:13:42

REM GENRE “Hard Rock”
REM DATE 2002
REM DISCID 0610CE11
REM COMMENT “ExactAudioCopy v1.0b3”
PERFORMER “Aerosmith”
TITLE “O, Yeah! Ultimate Aerosmith Hits (CD2)”
FILE “Aerosmith – O, Yeah! Ultimate Aerosmith Hits (CD-2).flac” WAVE
TRACK 01 AUDIO
TITLE “The Other Side”
PERFORMER “Aerosmith”
INDEX 01 00:00:00
TRACK 02 AUDIO
TITLE “Livin’ On The Edge”
PERFORMER “Aerosmith”
INDEX 00 04:05:17
INDEX 01 04:06:25
TRACK 03 AUDIO
TITLE “Cryin'”
PERFORMER “Aerosmith”
INDEX 01 10:27:47
TRACK 04 AUDIO
TITLE “Amazing”
PERFORMER “Aerosmith”
INDEX 01 15:36:10
TRACK 05 AUDIO
TITLE “Deuces Are Wild”
PERFORMER “Aerosmith”
INDEX 01 21:31:57
TRACK 06 AUDIO
TITLE “Crazy”
PERFORMER “Aerosmith”
INDEX 01 25:08:50
TRACK 07 AUDIO
TITLE “Falling In Love (Is Hard On The Knees)”
PERFORMER “Aerosmith”
INDEX 01 30:25:67
TRACK 08 AUDIO
TITLE “Pink (The South Beach mix)”
PERFORMER “Aerosmith”
INDEX 00 33:52:55
INDEX 01 33:54:30
TRACK 09 AUDIO
TITLE “I Don’t Want To Miss A Thing”
PERFORMER “Aerosmith”
INDEX 01 37:48:70
TRACK 10 AUDIO
TITLE “Jaded”
PERFORMER “Aerosmith”
INDEX 00 42:47:22
INDEX 01 42:48:42
TRACK 11 AUDIO
TITLE “Just Push Play (Radio remix)”
PERFORMER “Aerosmith”
INDEX 00 46:23:02
INDEX 01 46:24:02
TRACK 12 AUDIO
TITLE “Walk This Way”
PERFORMER “Run.D.M.C. & Aerosmith”
INDEX 00 49:35:52
INDEX 01 49:36:70
TRACK 13 AUDIO
TITLE “Girls Of Summer”
PERFORMER “Aerosmith”
INDEX 00 54:47:02
INDEX 01 54:48:40
TRACK 14 AUDIO
TITLE “Lay It Down”
PERFORMER “Aerosmith”
INDEX 00 58:02:07
INDEX 01 58:03:40
TRACK 15 AUDIO
TITLE “Come Together”
PERFORMER “Aerosmith”
INDEX 00 61:51:15
INDEX 01 61:54:12
TRACK 16 AUDIO
TITLE “Theme From Spider Man”
PERFORMER “Aerosmith”
INDEX 00 65:38:47
INDEX 01 65:39:60
TRACK 17 AUDIO
TITLE “Toys In The Attic”
PERFORMER “Aerosmith”
INDEX 01 68:37:52


Leave a Reply

Your email address will not be published. Required fields are marked *

This site uses Akismet to reduce spam. Learn how your comment data is processed.