Aerosmith – Nine Lives




Artist: Aerosmith
Year: 1997
Genre: Rock
Notes: Discogs
Add. Notes:
Cover incl.: Yes
Encoder: FLAC
Bitrate: ~1000 kBit/s (44.1 kHz/16 Bit/s)
Log & Cue incl.: Yes
Size: 590,66 MB
Password: “slam” (without ” “)


All Downloads/Hosters are compatible

Download 1
Turbobit.net
KatFile.com
Rapidgator.net
Usersdrive.com
Download 2
Turbobit.net
KatFile.com
Rapidgator.net
Usersdrive.com

Tracklist:

1 - Nine Lives - 4:01
2 - Falling In Love (Is Hard On The Knees) - 3:26
3 - Hole In My Soul - 6:10
4 - Taste Of India - 5:53
5 - Full Circle - 5:01
6 - Something's Gotta Give - 3:36
7 - Ain't That A Bitch - 5:26
8 - The Farm - 4:27
9 - Crash - 4:26
10 - Kiss Your Past Good-Bye - 4:32
11 - Pink - 3:55
12 - Attitude Adjustment - 3:44
13 - Fallen Angels - 8:17

EAC-Log, CUE-Sheed & NFO:

Click to open spoiler
Exact Audio Copy V1.0 beta 2 from 29. April 2011

Отчёт EAC об извлечении, выполненном 8. сентября 2012, 19:43

Aerosmith / Nine Lives

Дисковод: MATSHITADVD-RAM UJ8A0AS Adapter: 0 ID: 1

Режим чтения : Достоверность
Использование точного потока : Да
Отключение кэша аудио : Да
Использование указателей C2 : Нет

Коррекция смещения при чтении : 102
Способность читать области Lead-in и Lead-out : Нет
Заполнение пропущенных сэмплов тишиной : Да
Удаление блоков с тишиной в начале и конце : Нет
При вычислениях CRC использовались нулевые сэмплы : Да
Интерфейс : Встроенный Win32-интерфейс для Win NT/2000

Выходной формат : Пользовательский кодировщик
Выбранный битрейт : 128 kBit/s
Качество : Высокий
Добавление ID3-тега : Нет
Утилита сжатия : C:\Program Files (x86)\Exact Audio Copy\Flac\flac.exe
Дополнительные параметры : -V -8 -T “Date=%year%” -T “Genre=%genre%” %source%

TOC извлечённого CD

Трек | Старт | Длительность | Начальный сектор | Конечный сектор
———————————————————————
1 | 0:00.00 | 4:01.27 | 0 | 18101
2 | 4:01.27 | 3:25.63 | 18102 | 33539
3 | 7:27.15 | 6:10.05 | 33540 | 61294
4 | 13:37.20 | 5:53.30 | 61295 | 87799
5 | 19:30.50 | 5:00.30 | 87800 | 110329
6 | 24:31.05 | 3:36.55 | 110330 | 126584
7 | 28:07.60 | 5:25.17 | 126585 | 150976
8 | 33:33.02 | 4:27.48 | 150977 | 171049
9 | 38:00.50 | 4:25.65 | 171050 | 190989
10 | 42:26.40 | 4:31.50 | 190990 | 211364
11 | 46:58.15 | 3:55.25 | 211365 | 229014
12 | 50:53.40 | 3:44.52 | 229015 | 245866
13 | 54:38.17 | 8:16.43 | 245867 | 283109
14 | 65:26.60 | 3:07.02 | 294510 | 308536

Характеристики диапазона извлечения и сообщения об ошибках

Выбранный диапазон

Имя файла F:\Музыка\torrents\Aerosmith – Discography\Aerosmith (1997) – Nine Lives\Aerosmith – Nine Lives.wav

Пиковый уровень 100.0 %
Скорость извлечения 1.2 X
Качество диапазона 100.0 %
CRC теста 3D03CA65
CRC копии 3D03CA65
Копирование… OK

Ошибок не произошло

Конец отчёта

==== Контрольная сумма отчёта 1AB6D660786D95CD2C351795291F4804DDCE1062FFF75DA7C479CECD710B1B3A ====

REM GENRE Hard Rock
REM DATE 1997
REM DISCID C510110E
REM COMMENT “ExactAudioCopy v1.0b2”
PERFORMER “Aerosmith”
TITLE “Nine Lives [USA CK 67547]”
FILE “Aerosmith – Nine Lives.flac” WAVE
TRACK 01 AUDIO
TITLE “Nine Lives”
PERFORMER “Aerosmith”
ISRC USSM19604423
INDEX 01 00:00:00
TRACK 02 AUDIO
TITLE “Falling In Love (Is Hard On The Knees)”
PERFORMER “Aerosmith”
ISRC USSM19604341
INDEX 01 04:01:27
TRACK 03 AUDIO
TITLE “Hole In My Soul”
PERFORMER “Aerosmith”
ISRC USSM19604424
INDEX 01 07:27:15
TRACK 04 AUDIO
TITLE “Taste Of India”
PERFORMER “Aerosmith”
ISRC USSM19604425
INDEX 01 13:37:20
TRACK 05 AUDIO
TITLE “Full Circle”
PERFORMER “Aerosmith”
ISRC USSM19604434
INDEX 01 19:30:50
TRACK 06 AUDIO
TITLE “Something’s Gotta Give”
PERFORMER “Aerosmith”
ISRC USSM19604426
INDEX 01 24:31:05
TRACK 07 AUDIO
TITLE “Ain’t That A Bitch”
PERFORMER “Aerosmith”
ISRC USSM19604427
INDEX 01 28:07:60
TRACK 08 AUDIO
TITLE “The Farm”
PERFORMER “Aerosmith”
ISRC USSM19604428
INDEX 01 33:33:02
TRACK 09 AUDIO
TITLE “Crash”
PERFORMER “Aerosmith”
ISRC USSM19604429
INDEX 01 38:00:50
TRACK 10 AUDIO
TITLE “Kiss Your Past Good-Bye”
PERFORMER “Aerosmith”
ISRC USSM19604430
INDEX 01 42:26:40
TRACK 11 AUDIO
TITLE “Pink”
PERFORMER “Aerosmith”
ISRC USSM19604431
INDEX 01 46:58:15
TRACK 12 AUDIO
TITLE “Attitude Adjustment”
PERFORMER “Aerosmith”
ISRC USSM19604432
INDEX 01 50:53:40
TRACK 13 AUDIO
TITLE “Fallen Angels”
PERFORMER “Aerosmith”
ISRC USSM19604433
INDEX 01 54:38:17


Leave a Reply

Your email address will not be published. Required fields are marked *

This site uses Akismet to reduce spam. Learn how your comment data is processed.