Aerosmith – Night In The Ruts (Remastered)




Artist: Aerosmith
Year: 1979/1993
Genre: Rock
Notes: Discogs
Add. Notes: Remastered
Cover incl.: Yes
Encoder: FLAC
Bitrate: ~1000 kBit/s (44.1 kHz/16 Bit/s)
Log & Cue incl.: Yes
Size: 287,63 MB
Password: “slam” (without ” “)


All Downloads/Hosters are compatible

Download 1
Turbobit.net
Rapidgator.net
UploadEver.com
KatFile.com
UsersDrive.com
Download 2
Turbobit.net
Rapidgator.net
UploadEver.com
KatFile.com
UsersDrive.com
Download 3
Turbobit.net
Rapidgator.net
UploadEver.com
KatFile.com
UsersDrive.com

Tracklist:

1 - No Surprize - 4:26
2 - Chiquita - 4:25
3 - Remember (Walking In The Sand) - 4:05
4 - Cheese Cake - 4:16
5 - Three Mile Smile - 3:43
6 - Reefer Head Woman - 4:03
7 - Bone To Bone (Coney Island White Fish Boy) - 3:00
8 - Think About It - 3:35
9 - Mia - 4:13

EAC-Log, CUE-Sheed & NFO:

Click to open spoiler
Exact Audio Copy V1.0 beta 3 from 29. August 2011

EAC extraction logfile from 23. September 2013, 22:45

Aerosmith / Night In The Ruts

Used drive : Optiarc DVD-ROM DDU1675S Adapter: 3 ID: 0

Read mode : Secure
Utilize accurate stream : Yes
Defeat audio cache : Yes
Make use of C2 pointers : No

Read offset correction : 6
Overread into Lead-In and Lead-Out : No
Fill up missing offset samples with silence : Yes
Delete leading and trailing silent blocks : No
Null samples used in CRC calculations : Yes
Used interface : Native Win32 interface for Win NT & 2000

Used output format : User Defined Encoder
Selected bitrate : 1024 kBit/s
Quality : High
Add ID3 tag : No
Command line compressor : C:\Program Files (x86)\Exact Audio Copy\Flac\flac.exe
Additional command line options : -V -8 -T “Date=%year%” -T “Genre=%genre%” %source%

TOC of the extracted CD

Track | Start | Length | Start sector | End sector
———————————————————
1 | 0:00.00 | 4:25.72 | 0 | 19946
2 | 4:25.72 | 4:26.08 | 19947 | 39904
3 | 8:52.05 | 4:05.32 | 39905 | 58311
4 | 12:57.37 | 4:15.03 | 58312 | 77439
5 | 17:12.40 | 3:43.07 | 77440 | 94171
6 | 20:55.47 | 4:02.63 | 94172 | 112384
7 | 24:58.35 | 2:59.57 | 112385 | 125866
8 | 27:58.17 | 3:35.10 | 125867 | 142001
9 | 31:33.27 | 4:13.20 | 142002 | 160996

Range status and errors

Selected range

Filename F:\Torrent\Aerosmith – Night In The Ruts (CBS, 466720 2) (1979)\Aerosmith – Night In The Ruts.wav

Peak level 100.0 %
Extraction speed 7.3 X
Range quality 100.0 %
Test CRC 5CEBCDDA
Copy CRC 5CEBCDDA
Copy OK

No errors occurred

AccurateRip summary

Track 1 accurately ripped (confidence 2) [25B8B36D] (AR v2)
Track 2 accurately ripped (confidence 2) [687C9E74] (AR v2)
Track 3 accurately ripped (confidence 2) [C76CB0F8] (AR v2)
Track 4 accurately ripped (confidence 2) [B3F14F1B] (AR v2)
Track 5 accurately ripped (confidence 2) [E2A87FAF] (AR v2)
Track 6 accurately ripped (confidence 2) [07A4C16B] (AR v2)
Track 7 accurately ripped (confidence 2) [8C69B629] (AR v2)
Track 8 accurately ripped (confidence 2) [11B50390] (AR v2)
Track 9 accurately ripped (confidence 2) [28CEA877] (AR v2)

All tracks accurately ripped

End of status report

—- CUETools DB Plugin V2.1.4

[CTDB TOCID: KGJHP5cGM8ed92GXOIua97IICNE-] found
Submit result: KGJHP5cGM8ed92GXOIua97IICNE- has been confirmed
Track | CTDB Status
1 | (5/5) Accurately ripped
2 | (5/5) Accurately ripped
3 | (5/5) Accurately ripped
4 | (5/5) Accurately ripped
5 | (5/5) Accurately ripped
6 | (5/5) Accurately ripped
7 | (5/5) Accurately ripped
8 | (5/5) Accurately ripped
9 | (5/5) Accurately ripped

==== Log checksum CEF2EB45A15BFC61CE6385CFA73C2CE16F7B45EBA4B1E630E7A04D97E0C0B934 ====

REM GENRE “Hard Rock”
REM DATE 1979
REM DISCID 77086209
REM COMMENT “ExactAudioCopy v1.0b3”
PERFORMER “Aerosmith”
TITLE “Night In The Ruts [Austria 466720 2]”
FILE “Aerosmith – Night In The Ruts.flac” WAVE
TRACK 01 AUDIO
TITLE “No Surprize”
PERFORMER “Aerosmith”
INDEX 01 00:00:00
TRACK 02 AUDIO
TITLE “Chiquita”
PERFORMER “Aerosmith”
INDEX 00 04:25:47
INDEX 01 04:25:72
TRACK 03 AUDIO
TITLE “Remember (Walking In The Sand)”
PERFORMER “Aerosmith”
INDEX 00 08:50:42
INDEX 01 08:52:05
TRACK 04 AUDIO
TITLE “Cheese Cake”
PERFORMER “Aerosmith”
INDEX 01 12:57:37
TRACK 05 AUDIO
TITLE “Three Mile Smile”
PERFORMER “Aerosmith”
INDEX 00 17:11:65
INDEX 01 17:12:40
TRACK 06 AUDIO
TITLE “Reefer Head Woman”
PERFORMER “Aerosmith”
INDEX 01 20:55:47
TRACK 07 AUDIO
TITLE “Bone To Bone (Coney Island White Fish Boy)”
PERFORMER “Aerosmith”
INDEX 01 24:58:35
TRACK 08 AUDIO
TITLE “Think About It”
PERFORMER “Aerosmith”
INDEX 01 27:58:17
TRACK 09 AUDIO
TITLE “Mia”
PERFORMER “Aerosmith”
INDEX 00 31:32:50
INDEX 01 31:33:27


Leave a Reply

Your email address will not be published. Required fields are marked *

This site uses Akismet to reduce spam. Learn how your comment data is processed.