Aerosmith – Music From Another Dimension! (Deluxe Edition)




Artist: Aerosmith
Year: 2012
Genre: Rock
Notes: Discogs
Add. Notes: Deluxe Edition
Cover incl.: Yes
Encoder: FLAC
Bitrate: ~1000 kBit/s (44.1 kHz/16 Bit/s)
Log & Cue incl.: Yes
Size: 661,59 MB
Password: “slam” (without ” “)


All Downloads/Hosters are compatible

Download 1
Turbobit.net
Rapidgator.net
UploadByte.com
UploadEver.com
JustUpload.io
Download 2
Turbobit.net
Rapidgator.net
UploadByte.com
UploadEver.com
JustUpload.io
Download 3
Turbobit.net
Rapidgator.net
UploadByte.com
UploadEver.com
JustUpload.io

Tracklist:

CD1-01 - Luv XXX - 
CD1-02 - Oh Yeah - 
CD1-03 - Beautiful - 
CD1-04 - Tell Me - 
CD1-05 - Out Go The Lights - 
CD1-06 - Legendary Child - 
CD1-07 - What Could Have Been Love - 
CD1-08 - Street Jesus - 
CD1-09 - Can't Stop Lovin' You - 
CD1-10 - Lover Alot - 
CD1-11 - We All Fall Down - 
CD1-12 - Freedom Fighter - 
CD1-13 - Closer - 
CD1-14 - Something - 
CD1-15 - Another Last Goodbye - 
Bonus Tracks
CD2-01 - Up On The Mountain - 
CD2-02 - Oasis In The Night - 
CD2-03 - Sunny Side Of Love

EAC-Log, CUE-Sheed & NFO:

Click to open spoiler
Exact Audio Copy V1.0 beta 2 from 29. April 2011

Отчёт EAC об извлечении, выполненном 18. мая 2013, 13:07

Aerosmith / Music From Another Dimension!

Дисковод: MATSHITADVD-RAM UJ8A0AS Adapter: 1 ID: 0

Режим чтения : Достоверность
Использование точного потока : Да
Отключение кэша аудио : Да
Использование указателей C2 : Нет

Коррекция смещения при чтении : 102
Способность читать области Lead-in и Lead-out : Нет
Заполнение пропущенных сэмплов тишиной : Да
Удаление блоков с тишиной в начале и конце : Нет
При вычислениях CRC использовались нулевые сэмплы : Да
Интерфейс : Встроенный Win32-интерфейс для Win NT/2000

Выходной формат : Пользовательский кодировщик
Выбранный битрейт : 128 kBit/s
Качество : Высокий
Добавление ID3-тега : Нет
Утилита сжатия : C:\Program Files (x86)\Exact Audio Copy\Flac\flac.exe
Дополнительные параметры : -V -8 -T “Date=%year%” -T “Genre=%genre%” %source%

TOC извлечённого CD

Трек | Старт | Длительность | Начальный сектор | Конечный сектор
———————————————————————
1 | 0:00.00 | 5:16.43 | 0 | 23742
2 | 5:16.43 | 3:40.66 | 23743 | 40308
3 | 8:57.34 | 3:04.40 | 40309 | 54148
4 | 12:01.74 | 3:45.13 | 54149 | 71036
5 | 15:47.12 | 6:55.06 | 71037 | 102167
6 | 22:42.18 | 4:13.25 | 102168 | 121167
7 | 26:55.43 | 3:44.28 | 121168 | 137995
8 | 30:39.71 | 6:43.04 | 137996 | 168224
9 | 37:23.00 | 4:04.29 | 168225 | 186553
10 | 41:27.29 | 3:35.26 | 186554 | 202704
11 | 45:02.55 | 5:14.01 | 202705 | 226255
12 | 50:16.56 | 3:19.24 | 226256 | 241204
13 | 53:36.05 | 4:04.19 | 241205 | 259523
14 | 57:40.24 | 4:37.05 | 259524 | 280303
15 | 62:17.29 | 5:46.73 | 280304 | 306326

Характеристики диапазона извлечения и сообщения об ошибках

Выбранный диапазон

Имя файла D:\Музыка\torrents\Aerosmith – Discography\Albums\Aerosmith (2012) – Music From Another Dimension!\CD 1\Aerosmith – Music From Another Dimension!.wav

Пиковый уровень 100.0 %
Скорость извлечения 1.2 X
Качество диапазона 100.0 %
CRC теста C63306BC
CRC копии C63306BC
Копирование… OK

Ошибок не произошло

Конец отчёта

==== Контрольная сумма отчёта D5EA6481717BD2130A58F36FF8D79C5ED8146EAD215843FAC553C359B9676E86 ====

Exact Audio Copy V1.0 beta 2 from 29. April 2011

Отчёт EAC об извлечении, выполненном 18. мая 2013, 13:37

Aerosmith / Music From Another Dimension! (Bonus CD)

Дисковод: MATSHITADVD-RAM UJ8A0AS Adapter: 1 ID: 0

Режим чтения : Достоверность
Использование точного потока : Да
Отключение кэша аудио : Да
Использование указателей C2 : Нет

Коррекция смещения при чтении : 102
Способность читать области Lead-in и Lead-out : Нет
Заполнение пропущенных сэмплов тишиной : Да
Удаление блоков с тишиной в начале и конце : Нет
При вычислениях CRC использовались нулевые сэмплы : Да
Интерфейс : Встроенный Win32-интерфейс для Win NT/2000

Выходной формат : Пользовательский кодировщик
Выбранный битрейт : 128 kBit/s
Качество : Высокий
Добавление ID3-тега : Нет
Утилита сжатия : C:\Program Files (x86)\Exact Audio Copy\Flac\flac.exe
Дополнительные параметры : -V -8 -T “Date=%year%” -T “Genre=%genre%” %source%

TOC извлечённого CD

Трек | Старт | Длительность | Начальный сектор | Конечный сектор
———————————————————————
1 | 0:00.00 | 5:06.11 | 0 | 22960
2 | 5:06.11 | 4:06.53 | 22961 | 41463
3 | 9:12.64 | 3:27.66 | 41464 | 57054

Характеристики диапазона извлечения и сообщения об ошибках

Выбранный диапазон

Имя файла D:\Музыка\torrents\Aerosmith – Discography\Albums\Aerosmith (2012) – Music From Another Dimension!\CD 2 (Bonus)\Aerosmith – Music From Another Dimension! (Bonus CD).wav

Пиковый уровень 100.0 %
Скорость извлечения 1.0 X
Качество диапазона 100.0 %
CRC теста 974862C8
CRC копии 974862C8
Копирование… OK

Ошибок не произошло

Конец отчёта

==== Контрольная сумма отчёта 4424361929BDB9A47837697EEED59944F1A728F46D290B586F2F25CDA6B87EA6 ====

REM GENRE Hard Rock
REM DATE 2012
REM DISCID DC0FF40F
REM COMMENT “ExactAudioCopy v1.0b2”
PERFORMER “Aerosmith”
TITLE “Music From Another Dimension! [USA 88725 47908 2]”
FILE “Aerosmith – Music From Another Dimension!.flac” WAVE
TRACK 01 AUDIO
TITLE “Luv XXX”
PERFORMER “Aerosmith”
ISRC USSM11203614
INDEX 01 00:00:00
TRACK 02 AUDIO
TITLE “Oh, Yeah”
PERFORMER “Aerosmith”
ISRC USSM11203610
INDEX 01 05:16:43
TRACK 03 AUDIO
TITLE “Beautiful”
PERFORMER “Aerosmith”
ISRC USSM11203608
INDEX 01 08:57:34
TRACK 04 AUDIO
TITLE “Tell Me”
PERFORMER “Aerosmith”
ISRC USSM11204977
INDEX 01 12:01:74
TRACK 05 AUDIO
TITLE “Out Go The Lights”
PERFORMER “Aerosmith”
ISRC USSM11203613
INDEX 01 15:47:12
TRACK 06 AUDIO
TITLE “Legendary Child”
PERFORMER “Aerosmith”
ISRC USSM11202906
INDEX 01 22:42:18
TRACK 07 AUDIO
TITLE “What Could Have Been Love?”
PERFORMER “Aerosmith”
ISRC USSM11203607
INDEX 01 26:55:43
TRACK 08 AUDIO
TITLE “Street Jesus”
PERFORMER “Aerosmith”
ISRC USSM11203609
INDEX 01 30:39:71
TRACK 09 AUDIO
TITLE “Can’t Stop Lovin’ You (feat. Carrie Underwood)”
PERFORMER “Aerosmith”
ISRC USSM11204974
INDEX 01 37:23:00
TRACK 10 AUDIO
TITLE “Lover Alot”
PERFORMER “Aerosmith”
ISRC USSM11203617
INDEX 01 41:27:29
TRACK 11 AUDIO
TITLE “We All Fall Down”
PERFORMER “Aerosmith”
ISRC USSM11203611
INDEX 01 45:02:55
TRACK 12 AUDIO
TITLE “Freedom Fighter”
PERFORMER “Aerosmith”
ISRC USSM11203618
INDEX 00 50:15:68
INDEX 01 50:16:56
TRACK 13 AUDIO
TITLE “Closer”
PERFORMER “Aerosmith”
ISRC USSM11203615
INDEX 01 53:36:05
TRACK 14 AUDIO
TITLE “Something”
PERFORMER “Aerosmith”
ISRC USSM11204976
INDEX 01 57:40:24
TRACK 15 AUDIO
TITLE “Another Last Goodbye”
PERFORMER “Aerosmith”
ISRC USSM11203612
INDEX 01 62:17:29

REM GENRE Hard Rock
REM DATE 2012
REM DISCID 1B02F803
REM COMMENT “ExactAudioCopy v1.0b2”
PERFORMER “Aerosmith”
TITLE “Music From Another Dimension! [USA 88725 47908 2] (Bonus CD)”
FILE “Aerosmith – Music From Another Dimension! (Bonus CD).flac” WAVE
TRACK 01 AUDIO
TITLE “Up On The Mountain”
PERFORMER “Aerosmith”
ISRC USSM11203619
INDEX 01 00:00:00
TRACK 02 AUDIO
TITLE “Oasis In The Night”
PERFORMER “Aerosmith”
ISRC USSM11205481
INDEX 00 05:04:54
INDEX 01 05:06:11
TRACK 03 AUDIO
TITLE “Sunny Side Of Love”
PERFORMER “Aerosmith”
ISRC USSM11205480
INDEX 00 09:11:55
INDEX 01 09:12:64

Leave a Reply

Your email address will not be published. Required fields are marked *

This site uses Akismet to reduce spam. Learn how your comment data is processed.