Aerosmith – Live! Bootleg (Japanese Edition)




Artist: Aerosmith
Year: 1978/1993
Genre: Rock
Notes: Discogs
Add. Notes: Japanese Edition
Cover incl.: Yes
Encoder: FLAC
Bitrate: ~900 kBit/s (44.1 kHz/16 Bit/s)
Log & Cue incl.: Yes
Size: 673 MB
Password: “slam” (without ” “)


All Downloads/Hosters are compatible

Download 1
Turbobit.net
Rapidgator.net
UploadEver.com
KatFile.com
UsersDrive.com
Download 2
Turbobit.net
Rapidgator.net
UploadEver.com
KatFile.com
UsersDrive.com
Download 3
Turbobit.net
Rapidgator.net
UploadEver.com
KatFile.com
UsersDrive.com

Tracklist:

1. Back In The Saddle
2. Sweet Emotion
3. Lord Of The Thighs 
4. Toys In The Attic
5. Last Child
6. Come Together 
7. Walk This Way 
8. Sick As A Dog
9. Dream On
10. Chip Away The Stone
11. Sight For Sore Eyes
12. Mama Kin 
13. S.O.S.
14. I Ain't Got You 
15. Mother Popcorn 
16. Draw The Line
17. Train Kept A Rollin' / Strangers In 
The Night

EAC-Log, CUE-Sheed & NFO:

Click to open spoiler
Exact Audio Copy V1.0 beta 2 from 29. April 2011

Отчёт EAC об извлечении, выполненном 4. июня 2013, 21:40

Aerosmith / Live! Bootleg

Дисковод: MATSHITADVD-RAM UJ8A0AS Adapter: 1 ID: 0

Режим чтения : Достоверность
Использование точного потока : Да
Отключение кэша аудио : Да
Использование указателей C2 : Нет

Коррекция смещения при чтении : 102
Способность читать области Lead-in и Lead-out : Нет
Заполнение пропущенных сэмплов тишиной : Да
Удаление блоков с тишиной в начале и конце : Нет
При вычислениях CRC использовались нулевые сэмплы : Да
Интерфейс : Встроенный Win32-интерфейс для Win NT/2000

Выходной формат : Пользовательский кодировщик
Выбранный битрейт : 128 kBit/s
Качество : Высокий
Добавление ID3-тега : Нет
Утилита сжатия : C:\Program Files (x86)\Exact Audio Copy\Flac\flac.exe
Дополнительные параметры : -V -8 -T “Date=%year%” -T “Genre=%genre%” %source%

TOC извлечённого CD

Трек | Старт | Длительность | Начальный сектор | Конечный сектор
———————————————————————
1 | 0:00.00 | 4:28.05 | 0 | 20104
2 | 4:28.05 | 4:39.55 | 20105 | 41084
3 | 9:07.60 | 7:17.10 | 41085 | 73869
4 | 16:24.70 | 3:47.25 | 73870 | 90919
5 | 20:12.20 | 3:14.10 | 90920 | 105479
6 | 23:26.30 | 4:51.30 | 105480 | 127334
7 | 28:17.60 | 3:45.10 | 127335 | 144219
8 | 32:02.70 | 4:41.72 | 144220 | 165366
9 | 36:44.67 | 4:31.28 | 165367 | 185719
10 | 41:16.20 | 4:12.10 | 185720 | 204629
11 | 45:28.30 | 3:17.32 | 204630 | 219436
12 | 48:45.62 | 3:43.35 | 219437 | 236196
13 | 52:29.22 | 2:48.60 | 236197 | 248856
14 | 55:18.07 | 3:56.68 | 248857 | 266624
15 | 59:15.00 | 6:59.30 | 266625 | 298079
16 | 66:14.30 | 4:36.32 | 298080 | 318811
17 | 70:50.62 | 4:48.13 | 318812 | 340424

Характеристики диапазона извлечения и сообщения об ошибках

Выбранный диапазон

Имя файла D:\Музыка\torrents\Aerosmith – Discography\Lives\Aerosmith (1978) – Live! Bootleg [Japan SRCS-6275]\Aerosmith – Live! Bootleg.wav

Пиковый уровень 95.4 %
Скорость извлечения 1.2 X
Качество диапазона 100.0 %
CRC теста 07BF34F5
CRC копии 07BF34F5
Копирование… OK

Ошибок не произошло

Конец отчёта

==== Контрольная сумма отчёта 7519448F1EC368472B5BFEEA4EB898C4DF71F1E092A21721A727B93CD23C898A ====

REM GENRE Hard Rock
REM DATE 1978
REM DISCID FD11BB11
REM COMMENT “ExactAudioCopy v1.0b2”
PERFORMER “Aerosmith”
TITLE “Live! Bootleg [Japan SRCS-6275]”
FILE “Aerosmith – Live! Bootleg.flac” WAVE
TRACK 01 AUDIO
TITLE “Back In The Saddle”
PERFORMER “Aerosmith”
INDEX 01 00:00:00
TRACK 02 AUDIO
TITLE “Sweet Emotion”
PERFORMER “Aerosmith”
INDEX 01 04:28:05
TRACK 03 AUDIO
TITLE “Lord Of The Thighs”
PERFORMER “Aerosmith”
INDEX 01 09:07:60
TRACK 04 AUDIO
TITLE “Toys In The Attic”
PERFORMER “Aerosmith”
INDEX 01 16:24:70
TRACK 05 AUDIO
TITLE “Last Child”
PERFORMER “Aerosmith”
INDEX 01 20:12:20
TRACK 06 AUDIO
TITLE “Come Together”
PERFORMER “Aerosmith”
INDEX 01 23:26:30
TRACK 07 AUDIO
TITLE “Walk This Way”
PERFORMER “Aerosmith”
INDEX 01 28:17:60
TRACK 08 AUDIO
TITLE “Sick As A Dog”
PERFORMER “Aerosmith”
INDEX 01 32:02:70
TRACK 09 AUDIO
TITLE “Dream On”
PERFORMER “Aerosmith”
INDEX 01 36:44:67
TRACK 10 AUDIO
TITLE “Chip Away The Stone”
PERFORMER “Aerosmith”
INDEX 01 41:16:20
TRACK 11 AUDIO
TITLE “Sight For Sore Eyes”
PERFORMER “Aerosmith”
INDEX 01 45:28:30
TRACK 12 AUDIO
TITLE “Mama Kin”
PERFORMER “Aerosmith”
INDEX 01 48:45:62
TRACK 13 AUDIO
TITLE “S.O.S.”
PERFORMER “Aerosmith”
INDEX 01 52:29:22
TRACK 14 AUDIO
TITLE “I Ain’t Got You”
PERFORMER “Aerosmith”
INDEX 01 55:18:07
TRACK 15 AUDIO
TITLE “Mother Popcorn”
PERFORMER “Aerosmith”
INDEX 01 59:15:00
TRACK 16 AUDIO
TITLE “Draw The Line”
PERFORMER “Aerosmith”
INDEX 01 66:14:30
TRACK 17 AUDIO
TITLE “Train Kept A Rollin'”
PERFORMER “Aerosmith”
INDEX 01 70:50:62


Leave a Reply

Your email address will not be published. Required fields are marked *

This site uses Akismet to reduce spam. Learn how your comment data is processed.