Aerosmith – Just Push Play




Artist: Aerosmith
Year: 2001
Genre: Rock
Notes: Discogs
Add. Notes:
Cover incl.: Yes
Encoder: FLAC
Bitrate: ~1000 kBit/s (44.1 kHz/16 Bit/s)
Log & Cue incl.: Yes
Size: 455,89 MB
Password: “slam” (without ” “)


All Downloads/Hosters are compatible

Download 1
Turbobit.net
Rapidgator.net
KatFile.com
UploadRar.com
Download 2
Turbobit.net
Rapidgator.net
KatFile.com
UploadRar.com
Download 3
Turbobit.net
Rapidgator.net
KatFile.com
UploadRar.com

Tracklist:

1 - Beyond Beautiful - 4:46
2 - Just Push Play - 3:52
3 - Jaded - 3:29
4 - Fly Away From Here - 4:39
5 - Trip Hoppin' - 4:28
6 - Sunshine - 3:38
7 - Under My Skin - 3:48
8 - Luv Lies - 4:27
9 - Outta Your Head - 3:23
10 - Drop Dead Gorgeous - 3:43
11 - Light Inside - 3:36
12 - Avant Garden - 6:36

EAC-Log, CUE-Sheed & NFO:

Click to open spoiler
Exact Audio Copy V1.0 beta 2 from 29. April 2011

Отчёт EAC об извлечении, выполненном 3. мая 2013, 19:35

Aerosmith / Just Push Play

Дисковод: MATSHITADVD-RAM UJ8A0AS Adapter: 1 ID: 0

Режим чтения : Достоверность
Использование точного потока : Да
Отключение кэша аудио : Да
Использование указателей C2 : Нет

Коррекция смещения при чтении : 102
Способность читать области Lead-in и Lead-out : Нет
Заполнение пропущенных сэмплов тишиной : Да
Удаление блоков с тишиной в начале и конце : Нет
При вычислениях CRC использовались нулевые сэмплы : Да
Интерфейс : Встроенный Win32-интерфейс для Win NT/2000

Выходной формат : Пользовательский кодировщик
Выбранный битрейт : 128 kBit/s
Качество : Высокий
Добавление ID3-тега : Нет
Утилита сжатия : C:\Program Files (x86)\Exact Audio Copy\Flac\flac.exe
Дополнительные параметры : -V -8 -T “Date=%year%” -T “Genre=%genre%” %source%

TOC извлечённого CD

Трек | Старт | Длительность | Начальный сектор | Конечный сектор
———————————————————————
1 | 0:00.00 | 4:45.35 | 0 | 21409
2 | 4:45.35 | 3:51.20 | 21410 | 38754
3 | 8:36.55 | 3:35.40 | 38755 | 54919
4 | 12:12.20 | 5:01.57 | 54920 | 77551
5 | 17:14.02 | 4:27.18 | 77552 | 97594
6 | 21:41.20 | 3:37.40 | 97595 | 113909
7 | 25:18.60 | 3:47.20 | 113910 | 130954
8 | 29:06.05 | 4:26.52 | 130955 | 150956
9 | 33:32.57 | 3:22.35 | 150957 | 166141
10 | 36:55.17 | 3:42.53 | 166142 | 182844
11 | 40:37.70 | 3:34.70 | 182845 | 198964
12 | 44:12.65 | 6:35.55 | 198965 | 228644

Характеристики диапазона извлечения и сообщения об ошибках

Выбранный диапазон

Имя файла D:\Музыка\torrents\Aerosmith – Discography\Albums\Aerosmith (2001) – Just Push Play\Aerosmith – Just Push Play. flac.wav

Пиковый уровень 100.0 %
Скорость извлечения 1.2 X
Качество диапазона 100.0 %
CRC теста 3780754A
CRC копии 3780754A
Копирование… OK

Ошибок не произошло

Конец отчёта

==== Контрольная сумма отчёта BBA8A34FF1D2A61D2C7A1E9743B5E355BB018D2E0BAABAD5586F2BFC540C2401 ====

REM GENRE Hard Rock
REM DATE 2001
REM DISCID 920BE80C
REM COMMENT “ExactAudioCopy v1.0b2”
PERFORMER “Aerosmith”
TITLE “Just Push Play [USA CK 62088]”
FILE “Aerosmith – Just Push Play.flac” WAVE
TRACK 01 AUDIO
TITLE “Beyond Beautiful”
PERFORMER “Aerosmith”
ISRC USSM10101261
INDEX 01 00:00:00
TRACK 02 AUDIO
TITLE “Just Push Play”
PERFORMER “Aerosmith”
ISRC USSM10101262
INDEX 01 04:45:35
TRACK 03 AUDIO
TITLE “Jaded”
PERFORMER “Aerosmith”
ISRC USSM10019474
INDEX 01 08:36:55
TRACK 04 AUDIO
TITLE “Fly Away From Here”
PERFORMER “Aerosmith”
ISRC USSM10101263
INDEX 00 12:11:05
INDEX 01 12:12:20
TRACK 05 AUDIO
TITLE “Trip Hoppin'”
PERFORMER “Aerosmith”
ISRC USSM10101264
INDEX 01 17:14:02
TRACK 06 AUDIO
TITLE “Sunshine”
PERFORMER “Aerosmith”
ISRC USSM10101265
INDEX 01 21:41:20
TRACK 07 AUDIO
TITLE “Under My Skin”
PERFORMER “Aerosmith”
ISRC USSM10101266
INDEX 01 25:18:60
TRACK 08 AUDIO
TITLE “Luv Lies”
PERFORMER “Aerosmith”
ISRC USSM10101267
INDEX 00 29:04:50
INDEX 01 29:06:05
TRACK 09 AUDIO
TITLE “Outta Your Head”
PERFORMER “Aerosmith”
ISRC USSM10101268
INDEX 01 33:32:57
TRACK 10 AUDIO
TITLE “Drop Dead Gorgeous”
PERFORMER “Aerosmith”
ISRC USSM10101269
INDEX 01 36:55:17
TRACK 11 AUDIO
TITLE “Light Inside”
PERFORMER “Aerosmith”
ISRC USSM10101270
INDEX 01 40:37:70
TRACK 12 AUDIO
TITLE “Avant Garden”
PERFORMER “Aerosmith”
ISRC USSM10101271
INDEX 01 44:12:65


Leave a Reply

Your email address will not be published. Required fields are marked *

This site uses Akismet to reduce spam. Learn how your comment data is processed.