Aerosmith – Honkin’ On Bobo




Artist: Aerosmith
Year: 2004
Genre: Rock
Notes: Discogs
Add. Notes:
Cover incl.: Yes
Encoder: FLAC
Bitrate: ~1000 kBit/s (44.1 kHz/16 Bit/s)
Log & Cue incl.: Yes
Size: 427,43 MB
Password: “slam” (without ” “)


All Downloads/Hosters are compatible

Download 1
Turbobit.net
KatFile.com
Rapidgator.net
Download 2
Turbobit.net
KatFile.com
Rapidgator.net

Tracklist:

1 - Road Runner - 3:46
2 - Shame, Shame, Shame - 2:15
3 - Eyesight To The Blind - 3:10
4 - Baby, Please Don't Go - 3:24
5 - Never Loved A Girl - 3:12
6 - Back Back Train - 4:24
7 - You Gotta Move - 5:30
8 - The Grind - 3:47
9 - I'm Ready - 4:15
10 - Temperature - 2:52
11 - Stop Messin' Around - 4:32
12 - Jesus Is On The Main Line - 2:50

EAC-Log, CUE-Sheed & NFO:

Click to open spoiler
Exact Audio Copy V1.0 beta 2 from 29. April 2011

Отчёт EAC об извлечении, выполненном 15. августа 2013, 18:54

Aerosmith / Honkin’ On Bobo

Дисковод: MATSHITADVD-RAM UJ8A0AS Adapter: 1 ID: 0

Режим чтения : Достоверность
Использование точного потока : Да
Отключение кэша аудио : Да
Использование указателей C2 : Нет

Коррекция смещения при чтении : 102
Способность читать области Lead-in и Lead-out : Нет
Заполнение пропущенных сэмплов тишиной : Да
Удаление блоков с тишиной в начале и конце : Нет
При вычислениях CRC использовались нулевые сэмплы : Да
Интерфейс : Встроенный Win32-интерфейс для Win NT/2000

Выходной формат : Пользовательский кодировщик
Выбранный битрейт : 128 kBit/s
Качество : Высокий
Добавление ID3-тега : Нет
Утилита сжатия : C:\Program Files\foobar2000\encoders\flac.exe
Дополнительные параметры : -V -8 -T “Date=%year%” -T “Genre=%genre%” %source%

TOC извлечённого CD

Трек | Старт | Длительность | Начальный сектор | Конечный сектор
———————————————————————
1 | 0:00.00 | 3:45.32 | 0 | 16906
2 | 3:45.32 | 2:14.65 | 16907 | 27021
3 | 6:00.22 | 3:10.70 | 27022 | 41341
4 | 9:11.17 | 3:23.60 | 41342 | 56626
5 | 12:35.02 | 3:12.15 | 56627 | 71041
6 | 15:47.17 | 4:23.25 | 71042 | 90791
7 | 20:10.42 | 5:30.40 | 90792 | 115581
8 | 25:41.07 | 3:46.68 | 115582 | 132599
9 | 29:28.00 | 4:15.17 | 132600 | 151741
10 | 33:43.17 | 2:51.13 | 151742 | 164579
11 | 36:34.30 | 4:32.17 | 164580 | 184996
12 | 41:06.47 | 2:48.50 | 184997 | 197646
13 | 46:27.22 | 4:13.29 | 209047 | 228050

Характеристики диапазона извлечения и сообщения об ошибках

Выбранный диапазон

Имя файла E:\Музыка\torrents\Aerosmith – Discography\Albums\Aerosmith (2004) – Honkin’ On Bobo [USA CK 87025]\Aerosmith – Honkin’ On Bobo.wav

Пиковый уровень 98.9 %
Скорость извлечения 1.1 X
Качество диапазона 100.0 %
CRC теста 3C493AA6
CRC копии 3C493AA6
Копирование… OK

Ошибок не произошло

Конец отчёта

==== Контрольная сумма отчёта 97A169FD0B474E8F409DFE766DC9B7680A44213640DAC4D3F2A83F4F3C60C40D ====

REM GENRE Hard Rock
REM DATE 2004
REM DISCID B90BE00D
REM COMMENT “ExactAudioCopy v1.0b2”
PERFORMER “Aerosmith”
TITLE “Honkin’ On Bobo [CK 87025]”
FILE “Aerosmith – Honkin’ On Bobo.flac” WAVE
TRACK 01 AUDIO
TITLE “Road Runner”
PERFORMER “Aerosmith”
ISRC USSM10401289
INDEX 01 00:00:00
TRACK 02 AUDIO
TITLE “Shame, Shame, Shame”
PERFORMER “Aerosmith”
ISRC USSM10401291
INDEX 00 03:44:65
INDEX 01 03:45:32
TRACK 03 AUDIO
TITLE “Eyesight to the Blind”
PERFORMER “Aerosmith”
ISRC USSM10401283
INDEX 01 06:00:22
TRACK 04 AUDIO
TITLE “Baby, Please Don’t Go”
PERFORMER “Aerosmith”
ISRC USSM10401288
INDEX 00 09:10:15
INDEX 01 09:11:17
TRACK 05 AUDIO
TITLE “Never Loved a Girl”
PERFORMER “Aerosmith”
ISRC USSM10401285
INDEX 01 12:35:02
TRACK 06 AUDIO
TITLE “Back Back Train”
PERFORMER “Aerosmith”
ISRC USSM10401284
INDEX 01 15:47:17
TRACK 07 AUDIO
TITLE “You Gotta Move”
PERFORMER “Aerosmith”
ISRC USSM10401281
INDEX 01 20:10:42
TRACK 08 AUDIO
TITLE “The Grind”
PERFORMER “Aerosmith”
ISRC USSM10402406
INDEX 01 25:41:07
TRACK 09 AUDIO
TITLE “I’m Ready”
PERFORMER “Aerosmith”
ISRC USSM10401282
INDEX 01 29:28:00
TRACK 10 AUDIO
TITLE “Temperature”
PERFORMER “Aerosmith”
ISRC USSM10401286
INDEX 00 33:41:52
INDEX 01 33:43:17
TRACK 11 AUDIO
TITLE “Stop Messin’ Around”
PERFORMER “Aerosmith”
ISRC USSM10401287
INDEX 01 36:34:30
TRACK 12 AUDIO
TITLE “Jesus is on the Main Line”
PERFORMER “Aerosmith”
ISRC USSM10401290
INDEX 00 41:04:12
INDEX 01 41:06:47


Leave a Reply

Your email address will not be published. Required fields are marked *

Enter the text from the image below
 

This site uses Akismet to reduce spam. Learn how your comment data is processed.