Aerosmith – Greatest Hits




Artist: Aerosmith
Year: 1980
Genre: Rock
Notes: Discogs
Add. Notes:
Cover incl.: Yes
Encoder: FLAC
Bitrate: ~900 kBit/s (44.1 kHz/16 Bit/s)
Log & Cue incl.: Yes
Size: 270,99 MB
Password: “slam” (without ” “)


All Downloads/Hosters are compatible

Download 1
Turbobit.net
Rapidgator.net
UploadEver.com
KatFile.com
UsersDrive.com
Download 2
Turbobit.net
Rapidgator.net
UploadEver.com
KatFile.com
UsersDrive.com
Download 3
Turbobit.net
Rapidgator.net
UploadEver.com
KatFile.com
UsersDrive.com

Tracklist:

1 - Dream On - 4:28
2 - Same Old Song And Dance - 3:01
3 - Sweet Emotion - 3:12
4 - Walk This Way - 3:31
5 - Last Child - 3:27
6 - Back In The Saddle - 4:38
7 - Draw The Line - 3:21
8 - Kings And Queens - 3:47
9 - Come Together - 3:45
10 - Remember (Walking In The Sand) - 4:05

EAC-Log, CUE-Sheed & NFO:

Click to open spoiler
Exact Audio Copy V1.0 beta 2 from 29. April 2011

Отчёт EAC об извлечении, выполненном 8. сентября 2012, 21:49

Aerosmith / Greatest Hits

Дисковод: MATSHITADVD-RAM UJ8A0AS Adapter: 0 ID: 1

Режим чтения : Достоверность
Использование точного потока : Да
Отключение кэша аудио : Да
Использование указателей C2 : Нет

Коррекция смещения при чтении : 102
Способность читать области Lead-in и Lead-out : Нет
Заполнение пропущенных сэмплов тишиной : Да
Удаление блоков с тишиной в начале и конце : Нет
При вычислениях CRC использовались нулевые сэмплы : Да
Интерфейс : Встроенный Win32-интерфейс для Win NT/2000

Выходной формат : Пользовательский кодировщик
Выбранный битрейт : 128 kBit/s
Качество : Высокий
Добавление ID3-тега : Нет
Утилита сжатия : C:\Program Files (x86)\Exact Audio Copy\Flac\flac.exe
Дополнительные параметры : -V -8 -T “Date=%year%” -T “Genre=%genre%” %source%

TOC извлечённого CD

Трек | Старт | Длительность | Начальный сектор | Конечный сектор
———————————————————————
1 | 0:00.00 | 4:26.57 | 0 | 20006
2 | 4:26.57 | 3:04.13 | 20007 | 33819
3 | 7:30.70 | 3:14.42 | 33820 | 48411
4 | 10:45.37 | 3:32.10 | 48412 | 64321
5 | 14:17.47 | 3:28.10 | 64322 | 79931
6 | 17:45.57 | 4:41.18 | 79932 | 101024
7 | 22:27.00 | 3:23.15 | 101025 | 116264
8 | 25:50.15 | 3:49.02 | 116265 | 133441
9 | 29:39.17 | 3:45.58 | 133442 | 150374
10 | 33:25.00 | 4:04.12 | 150375 | 168686

Характеристики диапазона извлечения и сообщения об ошибках

Выбранный диапазон

Имя файла F:\Музыка\torrents\Aerosmith – Discography\Aerosmith (1980) – Greatest Hits\Aerosmith – Greatest Hits.wav

Пиковый уровень 94.7 %
Скорость извлечения 1.1 X
Качество диапазона 100.0 %
CRC теста 8444A94E
CRC копии 8444A94E
Копирование… OK

Ошибок не произошло

Конец отчёта

==== Контрольная сумма отчёта 5FA90AB6E28DDCE876BB6D1DEC3533353973B43A3A54952C73986B32030186CC ====

REM GENRE Hard Rock
REM DATE 1980
REM DISCID 8A08C90A
REM COMMENT “ExactAudioCopy v1.0b2”
PERFORMER “Aerosmith”
TITLE “Greatest Hits [Japan CDCBS 84704]”
FILE “Aerosmith – Greatest Hits.flac” WAVE
TRACK 01 AUDIO
TITLE “Dream On”
PERFORMER “Aerosmith”
INDEX 01 00:00:00
TRACK 02 AUDIO
TITLE “Same Old Song And Dance”
PERFORMER “Aerosmith”
INDEX 00 04:26:00
INDEX 01 04:26:57
TRACK 03 AUDIO
TITLE “Sweet Emotion”
PERFORMER “Aerosmith”
INDEX 00 07:30:12
INDEX 01 07:30:70
TRACK 04 AUDIO
TITLE “Walk This Way”
PERFORMER “Aerosmith”
INDEX 00 10:44:27
INDEX 01 10:45:37
TRACK 05 AUDIO
TITLE “Last Child”
PERFORMER “Aerosmith”
INDEX 00 14:16:35
INDEX 01 14:17:47
TRACK 06 AUDIO
TITLE “Back In The Saddle”
PERFORMER “Aerosmith”
INDEX 00 17:45:00
INDEX 01 17:45:57
TRACK 07 AUDIO
TITLE “Draw The Line”
PERFORMER “Aerosmith”
INDEX 00 22:26:15
INDEX 01 22:27:00
TRACK 08 AUDIO
TITLE “Kings And Queens”
PERFORMER “Aerosmith”
INDEX 00 25:49:52
INDEX 01 25:50:15
TRACK 09 AUDIO
TITLE “Come Together”
PERFORMER “Aerosmith”
INDEX 00 29:38:12
INDEX 01 29:39:17
TRACK 10 AUDIO
TITLE “Remember (Walking In The Sand)”
PERFORMER “Aerosmith”
INDEX 00 33:24:12
INDEX 01 33:25:00

Leave a Reply

Your email address will not be published. Required fields are marked *

This site uses Akismet to reduce spam. Learn how your comment data is processed.