Aerosmith – Get Your Wings (Japanese Edition)




Artist: Aerosmith
Year: 1974/1987
Genre: Rock
Notes: Discogs
Add. Notes: Japanese Edition
Cover incl.: Yes
Encoder: FLAC
Bitrate: ~800 kBit/s (44.1 kHz/16 Bit/s)
Log & Cue incl.: Yes
Size: 271,15 MB
Password: “slam” (without ” “)


All Downloads/Hosters are compatible

Download 1
Turbobit.net
Rapidgator.net
UploadByte.com
UploadEver.com
JustUpload.io
Download 2
Turbobit.net
Rapidgator.net
UploadByte.com
UploadEver.com
JustUpload.io
Download 3
Turbobit.net
Rapidgator.net
UploadByte.com
UploadEver.com
JustUpload.io

Tracklist:

1 - Same Old Song And Dance - 3:51
2 - Lord Of The Thighs - 4:15
3 - Spaced - 4:18
4 - Woman Of The World - 5:42
5 - S.O.S. (Too Bad) - 2:50
6 - Train Kept A Rollin' - 5:34
7 - Seasons Of Wither - 5:26
8 - Pandora's Box - 5:35

EAC-Log, CUE-Sheed & NFO:

Click to open spoiler
Exact Audio Copy V1.0 beta 2 from 29. April 2011

Отчёт EAC об извлечении, выполненном 24. июля 2013, 18:37

Aerosmith / Get Your Wings

Дисковод: MATSHITADVD-RAM UJ8A0AS Adapter: 1 ID: 0

Режим чтения : Достоверность
Использование точного потока : Да
Отключение кэша аудио : Да
Использование указателей C2 : Нет

Коррекция смещения при чтении : 102
Способность читать области Lead-in и Lead-out : Нет
Заполнение пропущенных сэмплов тишиной : Да
Удаление блоков с тишиной в начале и конце : Нет
При вычислениях CRC использовались нулевые сэмплы : Да
Интерфейс : Встроенный Win32-интерфейс для Win NT/2000

Выходной формат : Пользовательский кодировщик
Выбранный битрейт : 128 kBit/s
Качество : Высокий
Добавление ID3-тега : Нет
Утилита сжатия : C:\Program Files\foobar2000\encoders\flac.exe
Дополнительные параметры : -V -8 -T “Date=%year%” -T “Genre=%genre%” %source%

TOC извлечённого CD

Трек | Старт | Длительность | Начальный сектор | Конечный сектор
———————————————————————
1 | 0:00.00 | 3:53.55 | 0 | 17529
2 | 3:53.55 | 4:14.50 | 17530 | 36629
3 | 8:08.30 | 4:21.70 | 36630 | 56274
4 | 12:30.25 | 5:46.50 | 56275 | 82274
5 | 18:17.00 | 2:51.45 | 82275 | 95144
6 | 21:08.45 | 5:46.20 | 95145 | 121114
7 | 26:54.65 | 5:32.55 | 121115 | 146069
8 | 32:27.45 | 5:36.60 | 146070 | 171329

Характеристики диапазона извлечения и сообщения об ошибках

Выбранный диапазон

Имя файла E:\Музыка\torrents\Aerosmith – Discography\Albums\Aerosmith (1974) – Get Your Wings [Japan 28DP 1068]\Aerosmith – Get Your Wings.wav

Пиковый уровень 100.0 %
Скорость извлечения 1.2 X
Качество диапазона 100.0 %
CRC теста B7EEFB49
CRC копии B7EEFB49
Копирование… OK

Ошибок не произошло

Конец отчёта

==== Контрольная сумма отчёта F238EEE3F0F11C84628D5C2175BD4959EF37408FDD0F5AF7F392D52EA137BDCC ====

REM GENRE Hard Rock
REM DATE 1974
REM DISCID 6908EC08
REM COMMENT “ExactAudioCopy v1.0b2”
PERFORMER “Aerosmith”
TITLE “Get Your Wings [Japan 28DP 1068]”
FILE “Aerosmith – Get Your Wings.flac” WAVE
TRACK 01 AUDIO
TITLE “Same Old Song and Dance”
PERFORMER “Aerosmith”
INDEX 01 00:00:00
TRACK 02 AUDIO
TITLE “Lord of the Thighs”
PERFORMER “Aerosmith”
INDEX 01 03:53:55
TRACK 03 AUDIO
TITLE “Spaced”
PERFORMER “Aerosmith”
INDEX 01 08:08:30
TRACK 04 AUDIO
TITLE “Woman of the World”
PERFORMER “Aerosmith”
INDEX 01 12:30:25
TRACK 05 AUDIO
TITLE “S.O.S. (Too Bad)”
PERFORMER “Aerosmith”
INDEX 00 18:14:57
INDEX 01 18:17:00
TRACK 06 AUDIO
TITLE “Train Kept a Rollin'”
PERFORMER “Aerosmith”
INDEX 01 21:08:45
TRACK 07 AUDIO
TITLE “Seasons of Wither”
PERFORMER “Aerosmith”
INDEX 00 26:44:42
INDEX 01 26:54:65
TRACK 08 AUDIO
TITLE “Pandora’s Box”
PERFORMER “Aerosmith”
INDEX 00 32:24:15
INDEX 01 32:27:45

Leave a Reply

Your email address will not be published. Required fields are marked *

This site uses Akismet to reduce spam. Learn how your comment data is processed.